Ангелы и демоны. Факты или домыслы? / Angels Vs. Demons - Fact Or Fiction? (Уилл Эбрехт / Will Ehbrecht) [2009г., США , документальный, научно-популярный, HDTVRip 720p] Discovery HD

 Статистика раздачи 
Размер: 1.21 ГБ   |  Зарегистрирован: 28 ноя 2012, 22:15   |   .torrent скачан: 2 раз
Сидеров: 0  [ 0 байт/сек ]     Личеров: 3  [ 0 байт/сек ]  
  
Аватара пользователя
Главный редактор
Главный редактор
Автор темы
Раздал: 10.09 ТБ
Скачал: 1.76 ТБ
Ратио: 6.147
Сообщения: 3365
Стаж: 6 лет 11 месяцев 27 дней
Откуда: Санкт-Петербург

Ангелы и демоны. Факты или домыслы? / Angels Vs. Demons - Fact Or Fiction?


Оригинальное название: Angels Vs. Demons - Fact Or Fiction?
Русское название: Ангелы и демоны. Факты или домыслы?
Дата выхода: 2009
Режиссёр: Уилл Эбрехт / Will Ehbrecht
Страна: CША: Lone Wolf Documentary Group for Discovery Channel, Discovery Communications, LLC
Продолжительность: 00:43:33
Жанр: Документальный, научно-популярный
Перевод: Профессиональный (двухголосный)
Русские субтитры: нет
В романе Дэна Брауна "Ангелы и демоны" в сердце Ватикана поместили бомбу... Если не будут расшифрованы скрытые в течении столетий послания, древние заговорщики будут отомщены.
Это решающее столкновение науки и религии. Могло ли такое случится? Кто мог это сделать и почему? А теперь факты, скрытые за романом "Ангелы и демоны"...
Контейнер: MKV
Качество HD: HDTVRip 720p
Формат аудио: AC3
Формат видео: H.264
Видео: MPEG-4 AVC, 3129 Кбит/с, 1280x720 23,976 кадр/c
Аудио 1: Русский: АС3, 6 ch, 384 Кбит/с 48 kHz
Аудио 2: Английский: АС3, 6 ch, 384 Кбит/с 48 kHz
Код: Выделить всё
Общее
Уникальный идентификатор : 205170160277761655150662919951494351503 (0x9A5A55E5C6E1C0A9AD454BDE504F0A8F)
Полное имя : F:Документальные фильмыАнгелы и демоны. Факты или домыслы Angels Vs. Demons - Fact Or Fiction (2009) HDTVRip 720pAngely.i.demony.Fakty.ili.domysly.2009.x264.HDTVRip_Kinozal.TV.mkv
Формат : Matroska
Версия формата : Version 2
Размер файла : 1,21 Гбайт
Продолжительность : 43 м.
Общий поток : 3976 Кбит/сек
Дата кодирования : UTC 2010-11-04 21:56:41
Программа кодирования : mkvmerge v3.2.0 ('Beginnings') built on Feb 12 2010 16:46:17
Библиотека кодирования : libebml v0.7.9 + libmatroska v0.8.1

Видео
Идентификатор : 1
Формат : AVC
Формат/Информация : Advanced Video Codec
Профиль формата : [email protected]
Параметр CABAC формата : Да
Параметр ReFrames формата : 4 кадра
Идентификатор кодека : V_MPEG4/ISO/AVC
Продолжительность : 43 м.
Битрейт : 3206 Кбит/сек
Ширина : 1280 пикселей
Высота : 720 пикселей
Соотношение сторон : 16:9
Режим частоты кадров : Постоянный
Частота кадров : 23,976 кадра/сек
Цветовое пространство : YUV
Субдискретизация насыщенности : 4:2:0
Битовая глубина : 8 бит
Тип развёртки : Прогрессивная
Бит/(Пиксели*Кадры) : 0.145
Размер потока : 975 Мбайт (79%)
Библиотека кодирования : x264 core 98 r1649 20cbe10
Настройки программы : cabac=1 / ref=5 / deblock=1:0:0 / analyse=0x3:0x113 / me=umh / subme=7 / psy=1 / psy_rd=1.00:0.00 / mixed_ref=1 / me_range=16 / chroma_me=1 / trellis=1 / 8x8dct=1 / cqm=0 / deadzone=21,11 / fast_pskip=0 / chroma_qp_offset=-2 / threads=10 / sliced_threads=0 / nr=0 / decimate=1 / interlaced=0 / constrained_intra=0 / bframes=3 / b_pyramid=1 / b_adapt=1 / b_bias=0 / direct=1 / weightb=1 / weightp=2 / keyint=240 / keyint_min=24 / scenecut=40 / intra_refresh=0 / rc_lookahead=40 / rc=2pass / mbtree=1 / bitrate=3206 / ratetol=1.0 / qcomp=0.60 / qpmin=10 / qpmax=51 / qpstep=4 / cplxblur=20.0 / qblur=0.5 / ip_ratio=1.40 / aq=1:1.00
Язык : English
Default : Нет
Forced : Нет

Аудио #1
Идентификатор : 2
Формат : AC-3
Формат/Информация : Audio Coding 3
Расширение режима : CM (complete main)
Параметр Endianness формата : Big
Идентификатор кодека : A_AC3
Продолжительность : 43 м.
Вид битрейта : Постоянный
Битрейт : 384 Кбит/сек
Каналы : 6 каналов
Расположение каналов : Front: L C R, Side: L R, LFE
Частота : 48,0 КГц
Битовая глубина : 16 бит
Метод сжатия : С потерями
Размер потока : 120 Мбайт (10%)
Заголовок : angely.i.demony_by_nyctalus
Язык : Russian
Default : Да
Forced : Нет

Аудио #2
Идентификатор : 3
Формат : AC-3
Формат/Информация : Audio Coding 3
Расширение режима : CM (complete main)
Параметр Endianness формата : Big
Идентификатор кодека : A_AC3
Продолжительность : 43 м.
Вид битрейта : Постоянный
Битрейт : 384 Кбит/сек
Каналы : 6 каналов
Расположение каналов : Front: L C R, Side: L R, LFE
Частота : 48,0 КГц
Битовая глубина : 16 бит
Метод сжатия : С потерями
Размер потока : 120 Мбайт (10%)
Заголовок : angels.vs.demons
Язык : English
Default : Нет
Forced : Нет

   
Торрент: Зарегистрирован [28 ноя 2012, 22:15] Скачать торрент Магнет ссылка
Скачать торрент
[ Размер 12.65 КБ / Просмотров 178 ]
Статус:
Проверен
 
.torrent скачан: 2 раз
Размер: 1.21 ГБ (1 298 767 243 байт)
   
 
 
Цитата
  • Похожие торренты
    Ответы
    Просмотры
    Последнее сообщение

Вернуться в Discovery

Кто сейчас на конференции

Сейчас эту тему просматривают: нет зарегистрированных пользователей и гости: 1