Доктор Дж.: медицинское расследование / Dr. G: Medical Examiner, 1 - 6 сезоны (Discovery) [2004 - 2010, Документальный сериал (судебно-медицинская экспертиза), IPTVRip]

 Статистика раздачи 
Размер: 18.16 ГБ   |  Зарегистрирован: 26 ноя 2012, 15:02   |   .torrent скачан: 25 раз
Сидеров: 382  [ 0 байт/сек ]     Личеров: 298  [ 0 байт/сек ]  
  
Аватара пользователя
Администратор
Администратор
Автор темы
Раздал: 24.47 ТБ
Скачал: 388.83 ГБ
Ратио: 145.334
Сообщения: 5369
Стаж: 7 лет 1 месяц 9 дней
Откуда: Lithuania

Доктор Дж.: медицинское расследование / Dr. G: Medical Examiner


Русское название: Доктор Дж.: медицинское расследование
Оригинальное название: Dr. G: Medical Examiner
Год выхода: 2004 - 2010
Режиссер: Discovery
В ролях: Jan C. Garavaglia, Jeff Colt, Sandy Ludwig...
Страна производства: США
Продолжительность: 52 серии ~ 44 минуты
Перевод: Профессиональный (одноголосый)
Русские субтитры: нет
Жанр: Документальный сериал (судебно-медицинская экспертиза)


Описание: Программа представляет все более сложные головоломки. Доктор Дж. – судебный патологоанатом из Флориды – должна распутать сложный клубок загадок и раскрыть подлинные причины неожиданных и необъяснимых смертей.
Доктор Дж. расследует целый ряд таинственных происшествий. Это и смерть 32-летней женщины, которая внезапно умирает от странной болезни во время отпуска в Орландо, и гибель 76-летнего мужчины, который неожиданно пропадает из пассажирского поезда. Никто не знает причину этих несчастных случаев.
Посмотрите, как доктор Дж. старается докопаться до настоящей причины смерти, которая зачастую оказывается совершенно неожиданной.

Доп. информация: Стараюсь писать все серии, но иногда получаются технические накладки. В первых сериях может прыгать аспект и не вырезаны черные полосы.



1 сезон (обрезаны черные полосы по краям)
Качество: IPTVRip
Формат: AVI
Видео кодек: Другой MPEG4
Аудио кодек: MP3
Видео: [FMP4] 528x560 24bpp 25.000 fps Средний битрейт 950 kbps Aspect - 1.33:1
Аудио: MPEG 1.0, Layer III, 48000 Hz 128 kbit Joint-Stereo, BPF: 480, Channels: 2, copyright: No, original: Yes, CRC: No, emphasis: 0 ABR
Overall bit rate mode : Variable
Overall bit rate : 1 119 Kbps
Writing application : MEncoder dev-SVN-r26940
Writing library : MPlayer

Video
ID : 0
Format : MPEG-4 Visual
Codec ID : FMP4
Duration : 44mn 15s
Bit rate : 947 Kbps
Width : 528 pixels
Height : 560 pixels
Display aspect ratio : 4:3
Frame rate : 25.000 fps
Color space : YUV
Chroma subsampling : 4:2:0
Compression mode : Lossy
Bits/(Pixel*Frame) : 0.128
Stream size : 300 MiB (85%)

Audio
ID : 1
Format : MPEG Audio
Format version : Version 1
Format profile : Layer 3
Mode : Joint stereo
Mode extension : MS Stereo
Codec ID : 55
Codec ID/Hint : MP3
Duration : 44mn 15s
Bit rate mode : Variable
Bit rate : 160 Kbps
Channel(s) : 2 channels
Sampling rate : 48.0 KHz
Compression mode : Lossy
Stream size : 50.5 MiB (14%)
Alignment : Aligned on interleaves
Interleave, duration : 24 ms (0.60 video frame)
Interleave, preload duration : 397 ms






2 сезон
Качество: IPTVRip
Формат: AVI
Видео кодек: Другой MPEG4
Аудио кодек: MP3
Видео: [FMP4] 528x560 24bpp 25.000 fps Средний битрейт 1000 kbps Aspect - 1.33:1
Аудио: MPEG 1.0, Layer III, 48000 Hz 128 kbit Joint-Stereo, BPF: 480, Channels: 2, copyright: No, original: Yes, CRC: No, emphasis: 0 ABR
General
Complete name : D:\FILMS\Dr.G\Dr.G.S02.E07.The Things Men Do.avi
Format : AVI
Format/Info : Audio Video Interleave
File size : 356 MiB
Duration : 44mn 46s
Overall bit rate mode : Variable
Overall bit rate : 1 113 Kbps
Writing application : MEncoder SVN-r32643-4.3.5
Writing library : MPlayer

Video
ID : 0
Format : MPEG-4 Visual
Codec ID : FMP4
Duration : 44mn 46s
Bit rate : 948 Kbps
Width : 528 pixels
Height : 560 pixels
Display aspect ratio : 4:3
Frame rate : 25.000 fps
Color space : YUV
Chroma subsampling : 4:2:0
Compression mode : Lossy
Bits/(Pixel*Frame) : 0.128
Stream size : 303 MiB (85%)

Audio
ID : 1
Format : MPEG Audio
Format version : Version 1
Format profile : Layer 3
Mode : Joint stereo
Mode extension : MS Stereo
Codec ID : 55
Codec ID/Hint : MP3
Duration : 44mn 46s
Bit rate mode : Variable
Bit rate : 152 Kbps
Channel(s) : 2 channels
Sampling rate : 48.0 KHz
Compression mode : Lossy
Stream size : 48.7 MiB (14%)
Alignment : Aligned on interleaves
Interleave, duration : 24 ms (0.60 video frame)
Interleave, preload duration : 436 ms






3 сезон
Качество: IPTVRip
Формат: AVI
Видео кодек: Другой MPEG4
Аудио кодек: MP3
Видео: [FMP4] 528x560 24bpp 25.000 fps Средний битрейт 1000 kbps Aspect - 1.33:1
Аудио: MPEG 1.0, Layer III, 48000 Hz 128 kbit Joint-Stereo, BPF: 480, Channels: 2, copyright: No, original: Yes, CRC: No, emphasis: 0 ABR
General
Complete name : D:\FILMS\Dr.G\Dr.G.S02.E08.Truth of the Matter.avi
Format : AVI
Format/Info : Audio Video Interleave
File size : 355 MiB
Duration : 44mn 32s
Overall bit rate mode : Variable
Overall bit rate : 1 114 Kbps
Writing application : MEncoder SVN-r32643-4.3.5
Writing library : MPlayer

Video
ID : 0
Format : MPEG-4 Visual
Codec ID : FMP4
Duration : 44mn 32s
Bit rate : 948 Kbps
Width : 528 pixels
Height : 560 pixels
Display aspect ratio : 4:3
Frame rate : 25.000 fps
Color space : YUV
Chroma subsampling : 4:2:0
Compression mode : Lossy
Bits/(Pixel*Frame) : 0.128
Stream size : 302 MiB (85%)

Audio
ID : 1
Format : MPEG Audio
Format version : Version 1
Format profile : Layer 3
Mode : Joint stereo
Mode extension : MS Stereo
Codec ID : 55
Codec ID/Hint : MP3
Duration : 44mn 32s
Bit rate mode : Variable
Bit rate : 153 Kbps
Channel(s) : 2 channels
Sampling rate : 48.0 KHz
Compression mode : Lossy
Stream size : 48.6 MiB (14%)
Alignment : Aligned on interleaves
Interleave, duration : 24 ms (0.60 video frame)
Interleave, preload duration : 507 ms





4 сезон
Качество: IPTVRip
Формат: AVI
Видео кодек: Другой MPEG4
Аудио кодек: MP3
Видео: [FMP4] 528x560 24bpp 25.000 fps Средний битрейт 1000 kbps Aspect - 1.33:1
Аудио: MPEG 1.0, Layer III, 48000 Hz 176 Kbps Joint-Stereo, BPF: 480, Channels: 2, copyright: No, original: Yes, CRC: No, emphasis: 0 ABR

General
Complete name : D:\FILMS\Dr.G\Dr.G.S04.E10.In the Dead of Night.avi
Format : AVI
Format/Info : Audio Video Interleave
File size : 354 MiB
Duration : 43mn 40s
Overall bit rate mode : Variable
Overall bit rate : 1 134 Kbps
Writing application : MEncoder dev-SVN-r26940
Writing library : MPlayer

Video
ID : 0
Format : MPEG-4 Visual
Codec ID : FMP4
Duration : 43mn 40s
Bit rate : 944 Kbps
Width : 528 pixels
Height : 560 pixels
Display aspect ratio : 4:3
Frame rate : 25.000 fps
Color space : YUV
Chroma subsampling : 4:2:0
Compression mode : Lossy
Bits/(Pixel*Frame) : 0.128
Stream size : 295 MiB (83%)

Audio
ID : 1
Format : MPEG Audio
Format version : Version 1
Format profile : Layer 3
Mode : Joint stereo
Mode extension : MS Stereo
Codec ID : 55
Codec ID/Hint : MP3
Duration : 43mn 40s
Bit rate mode : Variable
Bit rate : 176 Kbps
Channel(s) : 2 channels
Sampling rate : 48.0 KHz
Compression mode : Lossy
Stream size : 55.1 MiB (16%)
Alignment : Aligned on interleaves
Interleave, duration : 24 ms (0.60 video frame)
Interleave, preload duration : 496 ms




5 сезон
Качество: IPTVRip
Формат: AVI
Видео кодек: Другой MPEG4
Аудио кодек: MP3
Видео: [FMP4] 544x576 24bpp 25.000 fps Средний битрейт 1000 kbps Aspect - 1.33:1
Аудио: MPEG 1.0, Layer III, 48000 Hz 96.0 Kbps Kbps Joint-Stereo, BPF: 480, Channels: 2, copyright: No, original: Yes, CRC: No, emphasis: 0 ABR
General
Complete name : D:\FILMS\Dr.G\Dr.G.S05.E05.Degrees of Death.avi
Format : AVI
Format/Info : Audio Video Interleave
File size : 315 MiB
Duration : 43mn 30s
Overall bit rate mode : Variable
Overall bit rate : 1 011 Kbps

Video
ID : 0
Format : MPEG-4 Visual
Codec ID : FMP4
Duration : 43mn 30s
Bit rate : 902 Kbps
Width : 544 pixels
Height : 576 pixels
Display aspect ratio : 0.944
Frame rate : 25.000 fps
Color space : YUV
Chroma subsampling : 4:2:0
Compression mode : Lossy
Bits/(Pixel*Frame) : 0.115
Stream size : 281 MiB (89%)

Audio
ID : 1
Format : MPEG Audio
Format version : Version 1
Format profile : Layer 3
Mode : Joint stereo
Mode extension : MS Stereo
Codec ID : 55
Codec ID/Hint : MP3
Duration : 26mn 6s
Source duration : 43mn 46s
Bit rate mode : Variable
Bit rate : 96.0 Kbps
Channel(s) : 2 channels
Sampling rate : 48.0 KHz
Compression mode : Lossy
Stream size : 29.9 MiB (10%)
Alignment : Aligned on interleaves
Interleave, duration : 24 ms (0.60 video frame)
Writing library : LAME3.97 (beta)




6 сезон
Качество: IPTVRip
Формат: AVI
Видео кодек: Другой MPEG4
Аудио кодек: MP3
Видео: [FMP4] 528x560 24bpp 25.000 fps Средний битрейт 1000 kbps Aspect - 1.33:1
Аудио: MPEG 1.0, Layer III, 48000 Hz 149 Kbps Kbps Joint-Stereo, BPF: 480, Channels: 2, copyright: No, original: Yes, CRC: No, emphasis: 0 ABR
General
Complete name : D:\FILMS\Dr.G\Dr.G.S06.E03.Deadly Silence.avi
Format : AVI
Format/Info : Audio Video Interleave
File size : 349 MiB
Duration : 43mn 58s
Overall bit rate mode : Variable
Overall bit rate : 1 110 Kbps
Writing application : MEncoder SVN-r32643-4.3.5
Writing library : MPlayer

Video
ID : 0
Format : MPEG-4 Visual
Codec ID : FMP4
Duration : 43mn 58s
Bit rate : 948 Kbps
Width : 528 pixels
Height : 560 pixels
Display aspect ratio : 4:3
Frame rate : 25.000 fps
Color space : YUV
Chroma subsampling : 4:2:0
Compression mode : Lossy
Bits/(Pixel*Frame) : 0.128
Stream size : 298 MiB (85%)

Audio
ID : 1
Format : MPEG Audio
Format version : Version 1
Format profile : Layer 3
Mode : Joint stereo
Mode extension : MS Stereo
Codec ID : 55
Codec ID/Hint : MP3
Duration : 43mn 58s
Bit rate mode : Variable
Bit rate : 149 Kbps
Channel(s) : 2 channels
Sampling rate : 48.0 KHz
Compression mode : Lossy
Stream size : 46.9 MiB (13%)
Alignment : Aligned on interleaves
Interleave, duration : 24 ms (0.60 video frame)
Interleave, preload duration : 684 ms





В скобках указан номер формата записи.
04. The Mystery of the Haunted Crossing (2)
05. The Chain of Life and Death (2)
06. Who Is Watching the Children (2)
07. Dark Waters (2)
09. A Mother's Love (2)
10. Ashes to Ashes (2)
11. Fighting for the Truth (2)
12. Dying to Be Young (1)


Сезон полностью идет в 1 формате
01. Death on the Road
02. The Mourning After
04. Prescription For Change
05. Burning Questions
06. A Fatal Attraction
07. The Things Men Do
08. Truth of the Matter
09. Paths of Destruction
10. Needle in the Haystack
11. A Lingering Question
12. Kiss of Death?
13. The Desperate Crossing

Сезон полностью идет в 1 формате
01. Dangerous Forces
02. Poison Control
04. Deadly Consequences
05. Deadly Arrest
06. On The Run (в паре-тройке мест пропадает перевод и влезает какая-то дорожка, как пойдет в повторе серия перепишу)
07. Old Wounds Run Deep

Сезон полностью идет в 1 формате
08. Shock to the System
09. Dangerous Games
10. In the Dead of Night
11. Twin Terror
12. Deadly Lovers Quarrel
13. Once Bitten

В скобках указан номер формата записи.
01. Under the Knife (1)
02. Deadly Encounter (1)
03. Unlikely Suspects (1)
05. Degrees of Death (2)
06. One False Move (2) раньше была 8 эпизодом у меня.
07. Cruel Intentions (2)
09. Secret Lives (2)
10. Deadly Remedies (2)
11. False Impressions (2)

В скобках указан номер формата записи.
02. Last Gasps (3)
03. Deadly Silence (1)
04. Fatal Twist (2)
05. Deadly Decisions (2)
06. Bruised and Battered (2)
07. Deadly Storms (1)
08. Fatal Flaw (1)
09. Deadly Dive (1)
10. Deadly Descent
11. A Deadly Deal
13. Evil Intent


Внимание! Раздача ведётся путём добавления новых выпусков; при каждом добавлении создаётся новый торрент. Чтобы начать докачку нового выпуска, пользователям необходимо сделать следующее:
(1) остановить скачивание,
(2) удалить старый торрент у себя из клиента (старые серии удалять не надо),
(3) скачать новый торрент и запустить его у себя в клиенте вместо старого, при этом указать клиенту путь в старую папку куда и должно происходить скачивание новых выпусков.
Ваш клиент при этом должен произвести хеширование (проверку) старой папки (если не производит сам - помогите ему сделать это). В результате он будет докачивать только те выпуски, которых у Вас ещё нет. Старые выпуски при этом не удаляются, а продолжают раздаваться!
Eсли Вы уже удалили старые выпуски, то предотвратить их повторную закачку можно, сняв галочки в соответствующих местах при запуске нового торрента. По возможности, желательно не удалять старые выпуски как можно дольше, чтобы релизёр не только продолжал раздавать старые выпуски, но и смог сконцентрироваться на новых.
   
Торрент: Зарегистрирован [26 ноя 2012, 15:02] Скачать торрент Магнет ссылка
Скачать торрент
[ Размер 94.64 КБ / Просмотров 367 ]
Статус:
Проверен
 
.torrent скачан: 25 раз
Размер: 18.16 ГБ (19 501 208 580 байт)
   
 
 
Цитата
  • Похожие торренты
    Ответы
    Просмотры
    Последнее сообщение

Вернуться в Discovery

Кто сейчас на конференции

Сейчас эту тему просматривают: нет зарегистрированных пользователей и гости: 1