Степан Бандера. Следы на Майдане (Андрей Березин) [2014, документальный, SATRip]

 Статистика раздачи 
Размер: 596.7 МБ   |  Зарегистрирован: 17 янв 2018, 18:50   |   .torrent скачан: 1 раз
Сидеров: 31  [ 0 байт/сек ]     Личеров: 4  [ 0 байт/сек ]  
  
Аватара пользователя
 
Раздал: 0 байт
Скачал: 0 байт
Ратио: Inf.
Сообщения: 174825
Стаж: 7 лет 7 месяцев 7 дней
Откуда: Rossiya

Степан Бандера. Следы на Майдане
Дата/Год выпуска: 2014
Страна: Россия
Жанр: документальный
Продолжительность: 00:44:18
Перевод: Не требуется
Русские субтитры: нет
Оригинальная аудиодорожка: русский
Режиссер: Андрей Березин
Телеканал: Россия 1
Описание: Памятники Степану Бандере стоят сегодня по всей Западной Украине. Но многие ли из тех, кто почитает его главным борцом за независимость украинского государства, знают, кем на самом деле был этот человек? О чем молчат современные украинские учебники историки?
С помощью недавно рассекреченных архивных документов и показаний свидетелей авторы фильма попытались пролить свет на биографию Степана Бандеры.
Свою политическую деятельность Бандера начнет, вступив, а потом и возглавив Организацию украинских националистов (ОУН). После организации нескольких громких терактов он окажется в тюрьме, где будет приговорен к смертной казни, впоследствии замененной на пожизненное заключение. В сентябре 1939 года после вторжения фашистов в Польшу он беспрепятственно покинет тюрьму. Завербованный германской разведкой Абвер, на деньги немецкого командования он будет создавать из бойцов ОУН отряды. Именно они составят костяк будущих карательных украинских батальонов "Роланд" и "Нахтигаль", устроивших массовые еврейские погромы во Львове и еще 26 городах по всей оккупированной фашистами Украине.
Это его бойцы будут стоять за пулеметами во время расстрелов евреев в Бабьем Яру. Это "бандеровцы" устроят массовую резню на Волыни, жертвами которой станут десятки тысяч поляков. Собирая свидетельства очевидцев преступлений "бандеровцев", авторы фильма объехали пять стран: Украина, Польша, Россия, Израиль, Германия. Первый польский космонавт Мирослав Гермашевский, чудом оставшийся в живых после массовой резни, устроенной "бандеровцами" в его родном селе Липники; Михаил Сидько, узник нацистских концлагерей, чья мать была застрелена украинскими полицаями в Бабьем Яру, сестры Анна и Ирина Чорна – уроженки села Залив, чьи родители были зверски замучены и убиты украинскими националистами – главные герои фильма.
Мечтою Степана Бандеры было создание этнически чистого украинского государства. Жертвами этнических чисток националистов стали сотни тысяч поляков, евреев, русских и даже самих украинцев. Близкий соратник Бандеры, командующий Украинской повстанческой армией Роман Шухевич, говорил: "Если понадобится, я истреблю половину украинцев, зато другая половина будет чистая, как стакан родниковой воды". Не это ли происходит сегодня на Украине? Кто и как превратил террориста, убийцу и кровавого палача в национального героя? И не его ли идеи транслирует в массы нынешняя киевская власть? Вот главные вопросы, которыми задаются авторы фильма.
Автор: Наталья Метлина
качество: SATRip
формат: AVI
Видео: 720x400 (1.80:1), 25 fps, XviD build 64 ~1744 kbps avg, 0.24 bit/pixel
Аудио: 48 kHz, MPEG Layer 3, 2 ch, ~128.00 kbps avg
Код: Выделить всё
Формат                                   : AVI
Формат/Информация                        : Audio Video Interleave
Размер файла                             : 597 Мбайт
Продолжительность                        : 44 м.
Общий поток                              : 1883 Кбит/сек
Библиотека кодирования                   : VirtualDub build 30009/release
Видео
Идентификатор                            : 0
Формат                                   : MPEG-4 Visual
Профиль формата                          : Advanced Simple@L5
Параметр BVOP формата                    : 2
Параметр QPel формата                    : Нет
Параметр GMC формата                     : Без точки перехода
Параметр матрицы формата                 : Default (MPEG)
Идентификатор кодека                     : XVID
Идентификатор кодека/Подсказка           : XviD
Продолжительность                        : 44 м.
Битрейт                                  : 1745 Кбит/сек
Ширина                                   : 720 пикселей
Высота                                   : 400 пикселей
Соотношение сторон                       : 16:9
Частота кадров                           : 25,000 кадров/сек
Цветовое пространство                    : YUV
Субдискретизация насыщенности            : 4:2:0
Битовая глубина                          : 8 бит
Тип развёртки                            : Прогрессивная
Метод сжатия                             : С потерями
Бит/(Пиксели*Кадры)                      : 0.242
Размер потока                            : 553 Мбайт (93%)
Библиотека кодирования                   : XviD 64
Аудио
Идентификатор                            : 1
Формат                                   : MPEG Audio
Версия формата                           : Version 1
Профиль формата                          : Layer 3
Режим                                    : Joint stereo
Расширение режима                        : MS Stereo
Идентификатор кодека                     : 55
Идентификатор кодека/Подсказка           : MP3
Продолжительность                        : 44 м.
Вид битрейта                             : Постоянный
Битрейт                                  : 128 Кбит/сек
Каналы                                   : 2 канала
Частота                                  : 48,0 КГц
Метод сжатия                             : С потерями
Размер потока                            : 40,6 Мбайт (7%)
Выравнивание                             : Разделение по промежуткам
Продолжительность промежутка             : 40  мс. (1,00 видеокадр)
Время предзагрузки промежутка            : 500  мс.
Не забывайте говорить Спасибо. Не уходите с раздачи!   
Торрент: Зарегистрирован [17 янв 2018, 18:50] Для скачивания .torrent
необходима регистрация
Или скачать с помощью
MediaGet
Статус:
Проверен
 
.torrent скачан: 1 раз
Размер: 596.7 МБ (625 680 634 байт)
   Стать Автором раздачи
   
Цитата

Вернуться в Личности

Кто сейчас на конференции

Сейчас эту тему просматривают: нет зарегистрированных пользователей и гости: 1