Люстра для спальни своими руками (2012) DVDRip

 Статистика раздачи 
Размер: 747.94 МБ   |  Зарегистрирован: 06 ноя 2012, 20:51   |   .torrent скачан: 0 раз
Сидеров: 0  [ 0 байт/сек ]     Личеров: 30  [ 0 байт/сек ]  
  
Аватара пользователя
Администратор
Администратор
 
Раздал: 24.48 ТБ
Скачал: 388.83 ГБ
Ратио: 145.343
Сообщения: 6043
Стаж: 7 лет 5 месяцев 15 дней
Откуда: Lithuania

Люстра для спальни своими руками


название: Люстра для спальни своими руками
Дата выхода: 2012
Перевод: Оригинал
Страна: Россия
Жанр: обучающее видео
продолжительность: 00:10:22

описание: Сегодня мы будем делать люстру для спальни. Точнее сказать не люстру а небольшой светильник со светодиодной подсветкой. Все производство происходит из подручных материалов, причем вариации возможны на ваш вкус и цвет. Удачного вам просмотра, надеюсь идея вас на что то да и вдохновит.




Аудио: AC3, 2 ch, 192 Кбит/с
Видео: XviD, 1382 Кбит/с, 1920x1080
Формат видео: XviD
Формат аудио: AC3
Качество: DVDRip
Код: Выделить всё
General
Unique ID                                : 168348648403719580577546155723716462494 (0x7EA6C532C2870C1E037BA147C20E879E)
Complete name                            : C:\Users\007\Desktop\lystra.mkv
Format                                   : Matroska
Format version                           : Version 2
File size                                : 748 MiB
Duration                                 : 10mn 21s
Overall bit rate                         : 10.1 Mbps
Writing application                      : Lavf51.12.1
Writing library                          : Lavf51.12.1

Video
ID                                       : 1
Format                                   : AVC
Format/Info                              : Advanced Video Codec
Format profile                           : [email protected]
Format settings, CABAC                   : No
Format settings, ReFrames                : 1 frame
Format settings, GOP                     : M=1, N=12
Codec ID                                 : V_MPEG4/ISO/AVC
Duration                                 : 10mn 21s
Bit rate                                 : 9 765 Kbps
Width                                    : 1 920 pixels
Height                                   : 1 080 pixels
Display aspect ratio                     : 16:9
Frame rate mode                          : Variable
Frame rate                               : 25.000 fps
Color space                              : YUV
Chroma subsampling                       : 4:2:0
Bit depth                                : 8 bits
Scan type                                : Progressive
Bits/(Pixel*Frame)                       : 0.188
Stream size                              : 724 MiB (97%)
Default                                  : Yes
Forced                                   : No

Audio
ID                                       : 2
Format                                   : MPEG Audio
Format version                           : Version 1
Format profile                           : Layer 3
Mode                                     : Joint stereo
Mode extension                           : MS Stereo
Codec ID                                 : A_MPEG/L3
Codec ID/Hint                            : MP3
Duration                                 : 10mn 21s
Bit rate mode                            : Constant
Bit rate                                 : 128 Kbps
Channel(s)                               : 2 channels
Sampling rate                            : 44.1 KHz
Compression mode                         : Lossy
Stream size                              : 9.48 MiB (1%)
Writing library                          : LAME3.97
Default                                  : Yes
Forced                                   : No




   
Торрент: Зарегистрирован [06 ноя 2012, 20:51] Разное (Видеоуроки) Скачать торрент Магнет ссылка
Скачать торрент
[ Размер 14.93 КБ / Просмотров 392 ]
Статус:
Проверен
 
.torrent скачан: 0 раз
Размер: 747.94 МБ (784 273 127 байт)
   Стать Автором раздачи
 
 
Цитата

Вернуться в Разное (Видеоуроки)

Кто сейчас на конференции

Сейчас эту тему просматривают: нет зарегистрированных пользователей и гости: 1