Богомол / La Mante [S01] (2017) WEBRip 720p | GreenРай Studio

 Статистика раздачи 
Размер: 7.87 ГБ   |  Зарегистрирован: 17 апр 2018, 20:22   |   .torrent скачан: 275 раз
Сидеров: 110  [ 0 байт/сек ]     Личеров: 35  [ 0 байт/сек ]  
  
Аватара пользователя
Главный редактор
Главный редактор
Я на сайте
 
Раздал: 47.52 ТБ
Скачал: 2.52 ТБ
Ратио: 19.258
Сообщения: 130478
Стаж: 7 лет 10 месяцев 24 дня
Откуда: Санкт-Петербург

Информация о фильме
Год выхода: 2017
Наименование: Богомол
Оригинальное наименование: La Mante
Произведено: Франция
Жанр: триллер, драма, криминал
Режиссер постановщик: Александр Лорен
В главных ролях: Кароль Буке, Фред Тесто, Мэнон Азем, Паскаль Демолон, Фредерик Бель, Жак Вебер, Робинсон Стевенен, Элоди Наварр, Серж Рябукин, Жюльен Тортора

О фильме: Действие разворачивается в Париже в наши дни. Жанна Дебер по прозвищу Богомол - печально известная женщина-убийца, которая держала в страхе Францию больше 25 лет назад. По соглашению с полицией Жанна покидает свою камеру-одиночку, чтобы помогать в охоте на её подражателя, но при одном условии: если её сын, ставший теперь полицейским, будет работать с ней. У Дамьена не остаётся выбора - серийный убийца гуляет на свободе и может нанести удар в любой момент.



Файл
Качество: WEBRip 720p
Видео данные: MKV, 1280x640 (2.000), 23.976 fps, 3150 Кбит/с
Аудио данные: AAC, 2 ch, 192 Кбит/с
Перевод: Любительский многоголосый (GreenРай Studio)
Продолжительность: 6 x 00:55:00

General
Unique ID : 101800249458030258309066802819519767394 (0x4C9603CF06E87E1DC47A174B0E6C6362)
Complete name : D:ГРИНРАЙLa.Mante.S01.720pБогомол s01e06.[720p].mkv
Format : Matroska
Format version : Version 4 / Version 2
File size : 1.34 GiB
Duration : 57 min 34 s
Overall bit rate : 3 342 kb/s
Encoded date : UTC 2018-04-16 18:50:15
Writing application : mkvmerge v21.0.0 ('Tardigrades Will Inherit The Earth') 64-bit
Writing library : libebml v1.3.5 + libmatroska v1.4.8

Video
ID : 1
Format : AVC
Format/Info : Advanced Video Codec
Format profile : High@L3.1
Format settings : CABAC / 1 Ref Frames
Format settings, CABAC : Yes
Format settings, RefFrames : 1 frame
Format settings, GOP : M=1, N=30
Codec ID : V_MPEG4/ISO/AVC
Duration : 57 min 34 s
Bit rate : 3 150 kb/s
Width : 1 280 pixels
Height : 640 pixels
Display aspect ratio : 2.000
Frame rate mode : Constant
Frame rate : 23.976 (24000/1001) FPS
Color space : YUV
Chroma subsampling : 4:2:0
Bit depth : 8 bits
Scan type : Progressive
Bits/(Pixel*Frame) : 0.160
Stream size : 1.27 GiB (94%)
Language : English
Default : Yes
Forced : No

Audio
ID : 2
Format : AAC
Format/Info : Advanced Audio Codec
Format profile : LC
Codec ID : A_AAC-2
Duration : 57 min 34 s
Bit rate : 192 kb/s
Channel(s) : 2 channels
Channel positions : Front: L R
Sampling rate : 48.0 kHz
Frame rate : 46.875 FPS (1024 SPF)
Compression mode : Lossy
Stream size : 78.0 MiB (6%)
Language : English
Default : Yes
Forced : No


Внимание, имеется видео и аудио реклама от спонсора показа



Релиз от:
Не забывайте говорить Спасибо. Не уходите с раздачи!   
Торрент: Зарегистрирован [17 апр 2018, 20:22] Для скачивания .torrent
необходима регистрация
Или скачать с помощью
MediaGet
Статус:
Проверен
 
.torrent скачан: 275 раз
Размер: 7.87 ГБ (8 447 468 922 байт)
   Стать Автором раздачи
   
Цитата
  • Похожие торренты
    Ответы
    Просмотры
    Последнее сообщение

Вернуться в Зарубежные сериалы

Кто сейчас на конференции

Сейчас эту тему просматривают: нет зарегистрированных пользователей и гости: 1