1921 / 1921 (2018) WEBRip 720p | GreenРай Studio

 Статистика раздачи 
Размер: 4.33 ГБ   |  Зарегистрирован: 17 апр 2018, 10:44   |   .torrent скачан: 179 раз
Сидеров: 77  [ 0 байт/сек ]     Личеров: 36  [ 0 байт/сек ]  
  
Аватара пользователя
Главный редактор
Главный редактор
Я на сайте
 
Раздал: 47.4 ТБ
Скачал: 2.52 ТБ
Ратио: 19.209
Сообщения: 130365
Стаж: 7 лет 10 месяцев 24 дня
Откуда: Санкт-Петербург
СообщениеДобавлено: 17 апр 2018, 10:12


Информация о фильме
Год выхода: 2018
Наименование: 1921
Оригинальное наименование: 1921
Произведено: Индия
Жанр: ужасы, триллер, мелодрама
Режиссер постановщик: Викрам Бхатт
В главных ролях: Зарин Кхан, Каран Кундра, Манджит Сингх, Викрам Бхатт, Тоби Хинсон

О фильме: 921 год, одаренный пианист Аюш Астана становится заложником неизвестного злого духа, на помощь ему приходит Роуз, медиум, которая также является поклонницей его музыки...Смогут ли они разобраться за какие грехи Аюша наказывают темные силы, а может, он и вовсе несет наказание не за свои ошибки?



Файл
Качество: WEBRip 720p
Видео данные: MKV, 1280x544 (2.35:1), 25.000 fps, 4000 Кбит/с
Аудио данные: AC3, 2 ch, 384 Кбит/с
Перевод: Любительский многоголосый (GreenРай Studio)
Продолжительность: 02:22:31

General
Unique ID : 213925145197270463272761936900985055076 (0xA0F07BFB09A59174897137F12819E764)
Complete name : D:ГРИНРАЙ1921.2018.P.WEB-DL.720p.mkv
Format : Matroska
Format version : Version 4 / Version 2
File size : 4.33 GiB
Duration : 2 h 22 min
Overall bit rate mode : Constant
Overall bit rate : 4 356 kb/s
Encoded date : UTC 2018-04-16 16:00:02
Writing application : mkvmerge v8.3.0 ('Over the Horizon') 64bit
Writing library : libebml v1.3.1 + libmatroska v1.4.2

Video
ID : 1
Format : AVC
Format/Info : Advanced Video Codec
Format profile : Main@L3.1
Format settings : CABAC / 3 Ref Frames
Format settings, CABAC : Yes
Format settings, RefFrames : 3 frames
Format settings, GOP : M=1, N=15
Codec ID : V_MPEG4/ISO/AVC
Duration : 2 h 22 min
Bit rate mode : Constant
Bit rate : 4 000 kb/s
Width : 1 280 pixels
Height : 544 pixels
Display aspect ratio : 2.35:1
Frame rate mode : Constant
Frame rate : 25.000 FPS
Standard : NTSC
Color space : YUV
Chroma subsampling : 4:2:0
Bit depth : 8 bits
Scan type : Progressive
Bits/(Pixel*Frame) : 0.230
Stream size : 3.95 GiB (91%)
Language : English
Default : Yes
Forced : No
Color range : Limited

Audio
ID : 2
Format : AC-3
Format/Info : Audio Coding 3
Codec ID : A_AC3
Duration : 2 h 22 min
Bit rate mode : Constant
Bit rate : 384 kb/s
Channel(s) : 2 channels
Channel positions : Front: L R
Sampling rate : 48.0 kHz
Frame rate : 31.250 FPS (1536 SPF)
Bit depth : 16 bits
Compression mode : Lossy
Stream size : 391 MiB (9%)
Service kind : Complete Main
Default : Yes
Forced : No


Внимание, имеется видео и аудио реклама от спонсора показа



Релиз от:
Не забывайте говорить Спасибо. Не уходите с раздачи!   
Торрент: Зарегистрирован [17 апр 2018, 10:44] Для скачивания .torrent
необходима регистрация
Или скачать с помощью
MediaGet
Статус:
Проверен
 
.torrent скачан: 179 раз
Размер: 4.33 ГБ (4 651 916 010 байт)
   Стать Автором раздачи
   
Цитата
  • Похожие торренты
    Ответы
    Просмотры
    Последнее сообщение

Вернуться в Зарубежное кино (HD Video)

Кто сейчас на конференции

Сейчас эту тему просматривают: нет зарегистрированных пользователей и гости: 1