(Score) A Single Man | Одинокий мужчина (Abel Korzeniowski, Shigeru Umebayashi & VA) - 2010, FLAC (tracks+.cue), lossless

 Статистика раздачи 
Размер: 253.42 МБ   |  Зарегистрирован: 04 сен 2012, 21:22   |   .torrent скачан: 4 раз
Сидеров: 58  [ 0 байт/сек ]     Личеров: 10  [ 0 байт/сек ]  
  
Аватара пользователя
Администратор
Администратор
Автор темы
Раздал: 24.47 ТБ
Скачал: 388.83 ГБ
Ратио: 145.334
Сообщения: 5369
Стаж: 7 лет 1 месяц 9 дней
Откуда: Lithuania

A Single Man | Одинокий мужчина


Оригинальное название: A Single Man | Одинокий мужчина
Страна: USA
Жанр: Score
Дата выхода: 2010
Формат аудио: FLAC
Битрэйт: lossless
Тип рипа: tracks+.cue
Продолжительность: 52:00
01. Abel Korzeniowski - Stillness of the Mind (3:55)
02. Abel Korzeniowski - Drowning (1:48)
03. Abel Korzeniowski - Snow (1:15)
04. Abel Korzeniowski - Becoming George (3:51)
05. Shigeru Umebayashi - George's Waltz (1) (1:40)
06. Abel Korzeniowski - Daydreams (2:16)
07. Abel Korzeniowski - Mescaline (3:11)
08. Abel Korzeniowski - Going Somewhere (1:59)
09. Shigeru Umebayashi - A Variation On Scotty Tails Madeline (1:52)
10. Shigeru Umebayashi - Carlos (1:01)
11. Miriam Gauci - La Wally (3:29)
12. Etta James - Stormy Weather (3:11)
13. Booker T. & The MG's - Green Onions (2:54)
14. Jo Stafford - Blue Moon (4:39)
15. Abel Korzeniowski - Swimming (1:39)
16. Abel Korzeniowski - And Just Like That (4:53)
17. Shigeru Umebayashi - George's Waltz (2) (3:19)
18. Abel Korzeniowski - Sunset (3:00)
19. Abel Korzeniowski - Clock Tick (2:07)

Код: Выделить всё
X Lossless Decoder version 20100117 (115.3)
XLD extraction logfile from 2010-01-22 15:51:55 -0500
Various Artists / A Single Man
Used drive : HL-DT-ST DVDRW  GS23N (revision SB03)
Use cdparanoia mode     : YES (CDParanoia III 10.2 engine)
Disable audio cache     : OK for the drive with cache less than 2750KB
Make use of C2 pointers : NO
Read offset correction  : 667
Max retry count         : 100
TOC of the extracted CD
     Track |   Start  |  Length  | Start sector | End sector
    ---------------------------------------------------------
        1  | 00:00:00 | 03:54:59 |         0    |    17608
        2  | 03:54:59 | 01:48:01 |     17609    |    25709
        3  | 05:42:60 | 01:15:21 |     25710    |    31355
        4  | 06:58:06 | 03:51:01 |     31356    |    48681
        5  | 10:49:07 | 01:39:72 |     48682    |    56178
        6  | 12:29:04 | 02:16:14 |     56179    |    66392
        7  | 14:45:18 | 03:10:59 |     66393    |    80701
        8  | 17:56:02 | 01:59:07 |     80702    |    89633
        9  | 19:55:09 | 01:52:34 |     89634    |    98067
       10  | 21:47:43 | 01:01:16 |     98068    |   102658
       11  | 22:48:59 | 03:28:74 |    102659    |   118332
       12  | 26:17:58 | 03:10:50 |    118333    |   132632
       13  | 29:28:33 | 02:54:24 |    132633    |   145706
       14  | 32:22:57 | 04:39:27 |    145707    |   166658
       15  | 37:02:09 | 01:39:21 |    166659    |   174104
       16  | 38:41:30 | 04:53:17 |    174105    |   196096
       17  | 43:34:47 | 03:18:54 |    196097    |   211000
       18  | 46:53:26 | 02:59:52 |    211001    |   224477
       19  | 49:53:03 | 02:07:03 |    224478    |   234005
All Tracks
    Album gain             : -5.30 dB
    Peak                   : 1.000000
Track 01
    Filename : /Users/James/Downloads/Various Artists - A Single Man (FLAC)/01 Abel Korzeniowski - Stillness of the Mind.flac
    Pre-gap length : 00:02:00
    Track gain             : -6.28 dB
    Peak                   : 0.995697
    CRC32 hash (test run)  : 016D9952
    CRC32 hash             : 016D9952
    CRC32 hash (skip zero) : 71466026
    AccurateRip signature  : 366F895D
        ->Track not present in AccurateRip database.
    Statistics
        Read error                           : 0
        Skipped (treated as error)           : 0
        Edge jitter error (maybe fixed)      : 0
        Atom jitter error (maybe fixed)      : 0
        Drift error (maybe fixed)            : 0
        Dropped bytes error (maybe fixed)    : 0
        Duplicated bytes error (maybe fixed) : 0
        Inconsistency in error sectors       : 0
Track 02
    Filename : /Users/James/Downloads/Various Artists - A Single Man (FLAC)/02 Abel Korzeniowski - Drowning.flac
    Pre-gap length : 00:01:33
    Track gain             : -4.71 dB
    Peak                   : 0.944092
    CRC32 hash (test run)  : 5A1728EF
    CRC32 hash             : 5A1728EF
    CRC32 hash (skip zero) : 4F07C3D0
    AccurateRip signature  : 8665B29A
        ->Track not present in AccurateRip database.
    Statistics
        Read error                           : 0
        Skipped (treated as error)           : 0
        Edge jitter error (maybe fixed)      : 0
        Atom jitter error (maybe fixed)      : 0
        Drift error (maybe fixed)            : 0
        Dropped bytes error (maybe fixed)    : 0
        Duplicated bytes error (maybe fixed) : 0
        Inconsistency in error sectors       : 0
Track 03
    Filename : /Users/James/Downloads/Various Artists - A Single Man (FLAC)/03 Abel Korzeniowski - Snow.flac
    Pre-gap length : 00:01:28
    Track gain             : -5.50 dB
    Peak                   : 0.944092
    CRC32 hash (test run)  : 0FCF06FB
    CRC32 hash             : 0FCF06FB
    CRC32 hash (skip zero) : 389E2806
    AccurateRip signature  : 786F1002
        ->Track not present in AccurateRip database.
    Statistics
        Read error                           : 0
        Skipped (treated as error)           : 0
        Edge jitter error (maybe fixed)      : 0
        Atom jitter error (maybe fixed)      : 0
        Drift error (maybe fixed)            : 0
        Dropped bytes error (maybe fixed)    : 0
        Duplicated bytes error (maybe fixed) : 0
        Inconsistency in error sectors       : 0
Track 04
    Filename : /Users/James/Downloads/Various Artists - A Single Man (FLAC)/04 Abel Korzeniowski - Becoming George.flac
    Pre-gap length : 00:01:02
    Track gain             : -1.11 dB
    Peak                   : 0.886627
    CRC32 hash (test run)  : 7D28527D
    CRC32 hash             : 7D28527D
    CRC32 hash (skip zero) : D256E16F
    AccurateRip signature  : 97B1F9D8
        ->Track not present in AccurateRip database.
    Statistics
        Read error                           : 0
        Skipped (treated as error)           : 0
        Edge jitter error (maybe fixed)      : 0
        Atom jitter error (maybe fixed)      : 0
        Drift error (maybe fixed)            : 0
        Dropped bytes error (maybe fixed)    : 0
        Duplicated bytes error (maybe fixed) : 0
        Inconsistency in error sectors       : 0
Track 05
    Filename : /Users/James/Downloads/Various Artists - A Single Man (FLAC)/05 Shigeru Umebayashi - George's Waltz.flac
    Pre-gap length : 00:01:25
    Track gain             : -2.13 dB
    Peak                   : 0.699432
    CRC32 hash (test run)  : F4438677
    CRC32 hash             : F4438677
    CRC32 hash (skip zero) : E4EB4D83
    AccurateRip signature  : 617F46B8
        ->Track not present in AccurateRip database.
    Statistics
        Read error                           : 0
        Skipped (treated as error)           : 0
        Edge jitter error (maybe fixed)      : 0
        Atom jitter error (maybe fixed)      : 0
        Drift error (maybe fixed)            : 0
        Dropped bytes error (maybe fixed)    : 0
        Duplicated bytes error (maybe fixed) : 0
        Inconsistency in error sectors       : 0
Track 06
    Filename : /Users/James/Downloads/Various Artists - A Single Man (FLAC)/06 Abel Korzeniowski - Daydreams.flac
    Pre-gap length : 00:01:33
    Track gain             : -3.26 dB
    Peak                   : 0.944092
    CRC32 hash (test run)  : EACDD7B8
    CRC32 hash             : EACDD7B8
    CRC32 hash (skip zero) : 11EB838E
    AccurateRip signature  : DFDC141B
        ->Track not present in AccurateRip database.
    Statistics
        Read error                           : 0
        Skipped (treated as error)           : 0
        Edge jitter error (maybe fixed)      : 0
        Atom jitter error (maybe fixed)      : 0
        Drift error (maybe fixed)            : 0
        Dropped bytes error (maybe fixed)    : 0
        Duplicated bytes error (maybe fixed) : 0
        Inconsistency in error sectors       : 0
Track 07
    Filename : /Users/James/Downloads/Various Artists - A Single Man (FLAC)/07 Abel Korzeniowski - Mescaline.flac
    Pre-gap length : 00:01:37
    Track gain             : 2.12 dB
    Peak                   : 0.837128
    CRC32 hash (test run)  : B453326C
    CRC32 hash             : B453326C
    CRC32 hash (skip zero) : 8FDEEB52
    AccurateRip signature  : 93F654B9
        ->Track not present in AccurateRip database.
    Statistics
        Read error                           : 0
        Skipped (treated as error)           : 0
        Edge jitter error (maybe fixed)      : 0
        Atom jitter error (maybe fixed)      : 0
        Drift error (maybe fixed)            : 0
        Dropped bytes error (maybe fixed)    : 0
        Duplicated bytes error (maybe fixed) : 0
        Inconsistency in error sectors       : 0
Track 08
    Filename : /Users/James/Downloads/Various Artists - A Single Man (FLAC)/08 Abel Korzeniowski - Going Somewhere.flac
    Pre-gap length : 00:01:41
    Track gain             : -2.68 dB
    Peak                   : 0.944092
    CRC32 hash (test run)  : 834F3295
    CRC32 hash             : 834F3295
    CRC32 hash (skip zero) : 39959C73
    AccurateRip signature  : DE056041
        ->Track not present in AccurateRip database.
    Statistics
        Read error                           : 0
        Skipped (treated as error)           : 0
        Edge jitter error (maybe fixed)      : 0
        Atom jitter error (maybe fixed)      : 0
        Drift error (maybe fixed)            : 0
        Dropped bytes error (maybe fixed)    : 0
        Duplicated bytes error (maybe fixed) : 0
        Inconsistency in error sectors       : 0
Track 09
    Filename : /Users/James/Downloads/Various Artists - A Single Man (FLAC)/09 Shigeru Umebayashi - A Variation on Scotty Tails.flac
    Pre-gap length : 00:01:08
    Track gain             : -7.07 dB
    Peak                   : 0.944122
    CRC32 hash (test run)  : 3209A0B0
    CRC32 hash             : 3209A0B0
    CRC32 hash (skip zero) : 5AF646F0
    AccurateRip signature  : D01D85AE
        ->Track not present in AccurateRip database.
    Statistics
        Read error                           : 0
        Skipped (treated as error)           : 0
        Edge jitter error (maybe fixed)      : 0
        Atom jitter error (maybe fixed)      : 0
        Drift error (maybe fixed)            : 0
        Dropped bytes error (maybe fixed)    : 0
        Duplicated bytes error (maybe fixed) : 0
        Inconsistency in error sectors       : 0
Track 10
    Filename : /Users/James/Downloads/Various Artists - A Single Man (FLAC)/10 Shigeru Umebayashi - Carlos.flac
    Track gain             : -5.86 dB
    Peak                   : 0.938904
    CRC32 hash (test run)  : 9AE78FD2
    CRC32 hash             : 9AE78FD2
    CRC32 hash (skip zero) : 9D4688EA
    AccurateRip signature  : 632C4B31
        ->Track not present in AccurateRip database.
    Statistics
        Read error                           : 0
        Skipped (treated as error)           : 0
        Edge jitter error (maybe fixed)      : 0
        Atom jitter error (maybe fixed)      : 0
        Drift error (maybe fixed)            : 0
        Dropped bytes error (maybe fixed)    : 0
        Duplicated bytes error (maybe fixed) : 0
        Inconsistency in error sectors       : 0
Track 11
    Filename : /Users/James/Downloads/Various Artists - A Single Man (FLAC)/11 Miriam Gauci - La Wally.flac
    Pre-gap length : 00:01:55
    Track gain             : -7.54 dB
    Peak                   : 0.996246
    CRC32 hash (test run)  : 34C9EA94
    CRC32 hash             : 34C9EA94
    CRC32 hash (skip zero) : C2F5DC05
    AccurateRip signature  : BAD81CDC
        ->Track not present in AccurateRip database.
    Statistics
        Read error                           : 0
        Skipped (treated as error)           : 0
        Edge jitter error (maybe fixed)      : 0
        Atom jitter error (maybe fixed)      : 0
        Drift error (maybe fixed)            : 0
        Dropped bytes error (maybe fixed)    : 0
        Duplicated bytes error (maybe fixed) : 0
        Inconsistency in error sectors       : 0
Track 12
    Filename : /Users/James/Downloads/Various Artists - A Single Man (FLAC)/12 Etta James - Stormy Weather.flac
    Pre-gap length : 00:01:47
    Track gain             : -4.99 dB
    Peak                   : 0.754211
    CRC32 hash (test run)  : F944F508
    CRC32 hash             : F944F508
    CRC32 hash (skip zero) : 29924684
    AccurateRip signature  : A8BCF15F
        ->Track not present in AccurateRip database.
    Statistics
        Read error                           : 0
        Skipped (treated as error)           : 0
        Edge jitter error (maybe fixed)      : 0
        Atom jitter error (maybe fixed)      : 0
        Drift error (maybe fixed)            : 0
        Dropped bytes error (maybe fixed)    : 0
        Duplicated bytes error (maybe fixed) : 0
        Inconsistency in error sectors       : 0
Track 13
    Filename : /Users/James/Downloads/Various Artists - A Single Man (FLAC)/13 Booker T & The MG's - Green Onions.flac
    Pre-gap length : 00:01:68
    Track gain             : -2.83 dB
    Peak                   : 0.610168
    CRC32 hash (test run)  : DA6525FC
    CRC32 hash             : DA6525FC
    CRC32 hash (skip zero) : 8D3B65C6
    AccurateRip signature  : D524DB5D
        ->Track not present in AccurateRip database.
    Statistics
        Read error                           : 0
        Skipped (treated as error)           : 0
        Edge jitter error (maybe fixed)      : 0
        Atom jitter error (maybe fixed)      : 0
        Drift error (maybe fixed)            : 0
        Dropped bytes error (maybe fixed)    : 0
        Duplicated bytes error (maybe fixed) : 0
        Inconsistency in error sectors       : 0
Track 14
    Filename : /Users/James/Downloads/Various Artists - A Single Man (FLAC)/14 Jo Stafford - Blue Moon.flac
    Pre-gap length : 00:01:67
    Track gain             : -3.70 dB
    Peak                   : 0.753998
    CRC32 hash (test run)  : 4F602AAA
    CRC32 hash             : 4F602AAA
    CRC32 hash (skip zero) : 3B4B6947
    AccurateRip signature  : 15223DE5
        ->Track not present in AccurateRip database.
    Statistics
        Read error                           : 0
        Skipped (treated as error)           : 0
        Edge jitter error (maybe fixed)      : 0
        Atom jitter error (maybe fixed)      : 0
        Drift error (maybe fixed)            : 0
        Dropped bytes error (maybe fixed)    : 0
        Duplicated bytes error (maybe fixed) : 0
        Inconsistency in error sectors       : 0
Track 15
    Filename : /Users/James/Downloads/Various Artists - A Single Man (FLAC)/15 Abel Korzeniowski - Swimming.flac
    Pre-gap length : 00:01:26
    Track gain             : -6.51 dB
    Peak                   : 1.000000
    CRC32 hash (test run)  : 36AF50D3
    CRC32 hash             : 36AF50D3
    CRC32 hash (skip zero) : 56EC1363
    AccurateRip signature  : 1C966587
        ->Track not present in AccurateRip database.
    Statistics
        Read error                           : 0
        Skipped (treated as error)           : 0
        Edge jitter error (maybe fixed)      : 0
        Atom jitter error (maybe fixed)      : 0
        Drift error (maybe fixed)            : 0
        Dropped bytes error (maybe fixed)    : 0
        Duplicated bytes error (maybe fixed) : 0
        Inconsistency in error sectors       : 0
Track 16
    Filename : /Users/James/Downloads/Various Artists - A Single Man (FLAC)/16 Abel Korzeniowski - And Just Like That.flac
    Pre-gap length : 00:01:41
    Track gain             : -7.77 dB
    Peak                   : 0.999756
    CRC32 hash (test run)  : 1A538178
    CRC32 hash             : 1A538178
    CRC32 hash (skip zero) : 4C3177D2
    AccurateRip signature  : AFF81B41
        ->Track not present in AccurateRip database.
    Statistics
        Read error                           : 0
        Skipped (treated as error)           : 0
        Edge jitter error (maybe fixed)      : 0
        Atom jitter error (maybe fixed)      : 0
        Drift error (maybe fixed)            : 0
        Dropped bytes error (maybe fixed)    : 0
        Duplicated bytes error (maybe fixed) : 0
        Inconsistency in error sectors       : 0
Track 17
    Filename : /Users/James/Downloads/Various Artists - A Single Man (FLAC)/17 Shigeru Umebayashi - George's Waltz (II).flac
    Pre-gap length : 00:01:58
    Track gain             : -2.14 dB
    Peak                   : 0.832153
    CRC32 hash (test run)  : 25A26AFD
    CRC32 hash             : 25A26AFD
    CRC32 hash (skip zero) : 89C54C7A
    AccurateRip signature  : ACA068AB
        ->Track not present in AccurateRip database.
    Statistics
        Read error                           : 0
        Skipped (treated as error)           : 0
        Edge jitter error (maybe fixed)      : 0
        Atom jitter error (maybe fixed)      : 0
        Drift error (maybe fixed)            : 0
        Dropped bytes error (maybe fixed)    : 0
        Duplicated bytes error (maybe fixed) : 0
        Inconsistency in error sectors       : 0
Track 18
    Filename : /Users/James/Downloads/Various Artists - A Single Man (FLAC)/18 Abel Korzeniowski - Sunset.flac
    Pre-gap length : 00:03:31
    Track gain             : -5.07 dB
    Peak                   : 0.944092
    CRC32 hash (test run)  : 5FEECC93
    CRC32 hash             : 5FEECC93
    CRC32 hash (skip zero) : 4C7776DF
    AccurateRip signature  : 0097959D
        ->Track not present in AccurateRip database.
    Statistics
        Read error                           : 0
        Skipped (treated as error)           : 0
        Edge jitter error (maybe fixed)      : 0
        Atom jitter error (maybe fixed)      : 0
        Drift error (maybe fixed)            : 0
        Dropped bytes error (maybe fixed)    : 0
        Duplicated bytes error (maybe fixed) : 0
        Inconsistency in error sectors       : 0
Track 19
    Filename : /Users/James/Downloads/Various Artists - A Single Man (FLAC)/19 Abel Korzeniowski - Clock Tick.flac
    Pre-gap length : 00:01:20
    Track gain             : -4.15 dB
    Peak                   : 0.948395
    CRC32 hash (test run)  : E4587B81
    CRC32 hash             : E4587B81
    CRC32 hash (skip zero) : 279DE0CF
    AccurateRip signature  : 7CD1CAA8
        ->Track not present in AccurateRip database.
    Statistics
        Read error                           : 0
        Skipped (treated as error)           : 0
        Edge jitter error (maybe fixed)      : 0
        Atom jitter error (maybe fixed)      : 0
        Drift error (maybe fixed)            : 0
        Dropped bytes error (maybe fixed)    : 0
        Duplicated bytes error (maybe fixed) : 0
        Inconsistency in error sectors       : 0
No errors occurred
End of status report


   
Торрент: Зарегистрирован [04 сен 2012, 21:22] Soundtracks Скачать торрент Магнет ссылка
Скачать торрент
[ Размер 21.34 КБ / Просмотров 231 ]
Статус:
Проверен
 
.torrent скачан: 4 раз
Размер: 253.42 МБ (265 729 228 байт)
   
 
 
Цитата
  • Похожие торренты
    Ответы
    Просмотры
    Последнее сообщение

Вернуться в Soundtracks

Кто сейчас на конференции

Сейчас эту тему просматривают: нет зарегистрированных пользователей и гости: 1