Discovery. Правдивая история секса и любви / Discovery. Hidden History of Sex and Love (2002) DVDRip

 Статистика раздачи 
Размер: 702.77 МБ   |  Зарегистрирован: 30 июл 2012, 02:18   |   .torrent скачан: 2 раз
Сидеров: 6  [ 0 байт/сек ]     Личеров: 3  [ 0 байт/сек ]  
  
Аватара пользователя
Администратор
Администратор
Автор темы
Раздал: 24.47 ТБ
Скачал: 388.83 ГБ
Ратио: 145.334
Сообщения: 5369
Стаж: 7 лет 1 месяц 5 дней
Откуда: Lithuania

Правдивая история секса и любви / Discovery. Hidden History of Sex and Love


Русское название: Discovery: Правдивая история секса и любви
Оригинальное название: Discovery: Pravdivaya istoriya seksa i lubvi
Год выхода: 2002
Режиссер: Фил Грабски, Алан Эрейра
Страна производства: США
Продолжительность: 49 мин.
Жанр: документальный


Описание: Эта программа о тайнах секса и любви, накопленных человечеством за века. Сексуальные скандалы и интриги не изобретение современного мира, просто наши предки не говорили об этом так много, как мы сейчас. Тэрри Джонс наш сексуальный сыщик, выявляет детали секретной сексуальной истории иногда причудливой, веселой, а иногда темной и ужасающей.
Рейтинг IMDB:
Рейтинг Kinopoisk:


Качество HD: DVDRip
Формат аудио: AC3
Формат видео: XviD
Видео: XviD, 704x400, ~1813 кб/с
Аудио: AC3, 2 ch, ~192 кб/с
Общее
Полное имя : D:\VIDEO\Discovery.Pravdivaja.istorija.seksa.i.ljubvi.2002.avi
Формат : AVI
Формат/Информация : Audio Video Interleave
Размер файла : 703 Мбайт
Продолжительность : 48 м.
Общий поток : 2012 Кбит/сек
Программа кодирования : VirtualDubMod 1.5.4.1 (build 2178/release)
Библиотека кодирования : VirtualDubMod build 2178/release

Видео
Идентификатор : 0
Формат : MPEG-4 Visual
Профиль формата : Advanced [email protected]
Параметр BVOP формата : 1
Параметр QPel формата : Нет
Параметр GMC формата : Без точки перехода
Параметр матрицы формата : Выборочная
Идентификатор кодека : XVID
Идентификатор кодека/Подсказка : XviD
Продолжительность : 48 м.
Битрейт : 1813 Кбит/сек
Ширина : 704 пикселя
Высота : 400 пикселей
Соотношение сторон : 16:9
Частота кадров : 25,000 кадров/сек
Цветовое пространство : YUV
Субдискретизация насыщенности : 4:2:0
Битовая глубина : 8 бит
Тип развёртки : Прогрессивная
Метод сжатия : С потерями
Бит/(Пиксели*Кадры) : 0.258
Размер потока : 633 Мбайт (90%)
Библиотека кодирования : XviD 64

Аудио
Идентификатор : 1
Формат : AC-3
Формат/Информация : Audio Coding 3
Расширение режима : CM (complete main)
Параметр Endianness формата : Big
Идентификатор кодека : 2000
Продолжительность : 48 м.
Вид битрейта : Постоянный
Битрейт : 192 Кбит/сек
Каналы : 2 канала
Расположение каналов : Front: L R
Частота : 48,0 КГц
Битовая глубина : 16 бит
Метод сжатия : С потерями
Размер потока : 67,0 Мбайт (10%)
Выравнивание : Разделение по промежуткам
Продолжительность промежутка : 96 мс. (2,40 видеокадра)
Время предзагрузки промежутка : 96 мс.
Язык : Russian








   
Торрент: Зарегистрирован [30 июл 2012, 02:18] Скачать торрент Магнет ссылка
Скачать торрент
[ Размер 14.26 КБ / Просмотров 137 ]
Статус:
Проверен
 
.torrent скачан: 2 раз
Размер: 702.77 МБ (736 909 312 байт)
   
 
 
Цитата

Вернуться в Discovery

Кто сейчас на конференции

Сейчас эту тему просматривают: нет зарегистрированных пользователей и гости: 1