VA - DJ Robert Miles - In The Mix (1997) Mixed [FLAC|Lossless|image + .cue] <Breakbeat, Goa Trance, Progressive Trance>

 Статистика раздачи 
Размер: 526.08 МБ   |  Зарегистрирован: 10 апр 2018, 07:07   |   .torrent скачан: 13 раз
Сидеров: 1  [ 0 байт/сек ]     Личеров: 2  [ 0 байт/сек ]  
  
Аватара пользователя
 
Раздал: 2.59 ТБ
Скачал: 6.03 ГБ
Ратио: 439.461
Сообщения: 175967
Стаж: 1 год 4 месяца 22 дня

VA - DJ Robert Miles - In The Mix (1997) Mixed

Жанр: Breakbeat, Goa Trance, Progressive Trance
Издание: Urban - 553 412-2
Продолжительность: 01:15:26

Кодек: FLAC
Битрейт: Lossless
Тип рипа: image + .cue
Рип: шарик-off

Треклист:
01. Chicane - Offshore (4:14)
02. Goldie - Inner City Life (3:35)
03. Prana - Geomantik (4:10)
04. D-Saw - Track 7:22 (2:51)
05. Analogue Silence - Magnetic Field (4:30)
06. L.S.G. - Transmutation (3:04)
07. Nunca - Ballistique (Force Mass Motion Remix) (3:21)
08. Robert Miles - Fable (Psycho Version - NRG Mix) (3:58)
09. Arkarna - House On Fire (Andy Ling's Aryan Vocal Mix) (4:52)
10. Underworld - Pearl's Girl (5:27)
11. Sem - Red Dragon (2:19)
12. Robert Miles - For Us (4:24)
13. Clockwork - Dream (5:21)
14. Castle Trancelott - The Gloom (Trance Dub) (1:20)
15. Csilla - Man In The Moon (Robert Miles Emotional Mix) (5:33)
16. Lazonby - Sacred Cycles (Album Version) (4:55)
17. Altered State - Thoughts (Neural Networks Mix) (2:59)
18. Ascendence - D.R.O.P. (2:43)
19. Nem Cru - Hot Knives (5:40)
Код: Выделить всё
Exact Audio Copy V1.3 from 2. September 2016

EAC extraction logfile from 6. April 2018, 22:38

Various / DJ Robert Miles - In The Mix

Used drive  : ASUS    DRW-24D5MT   Adapter: 0  ID: 1

Read mode               : Secure
Utilize accurate stream : Yes
Defeat audio cache      : Yes
Make use of C2 pointers : No

Read offset correction                      : 6
Overread into Lead-In and Lead-Out          : No
Fill up missing offset samples with silence : Yes
Delete leading and trailing silent blocks   : No
Null samples used in CRC calculations       : Yes
Used interface                              : Installed external ASPI interface

Used output format              : User Defined Encoder
Selected bitrate                : 768 kBit/s
Quality                         : High
Add ID3 tag                     : No
Command line compressor         : C:\Program Files (x86)\Exact Audio Copy\Flac\flac.exe
Additional command line options : -8 -V -T "TITLE=%title%" -T "ARTIST=%artist%" -T "ALBUMARTIST=%albumartist%" -T "ALBUM=%albumtitle%" -T "DATE=%year%" -T "TRACKNUMBER=%tracknr%" -T "TRACKTOTAL=%numtracks%" -T "GENRE=%genre%" -T "COMMENT=%comment%" -T "PERFORMER=%albuminterpret%" -T "COMPOSER=%composer%" %source% -o %dest%

TOC of the extracted CD

     Track |   Start  |  Length  | Start sector | End sector
    ---------------------------------------------------------
        1  |  0:00.00 |  4:14.17 |         0    |    19066
        2  |  4:14.17 |  3:35.30 |     19067    |    35221
        3  |  7:49.47 |  4:10.70 |     35222    |    54041
        4  | 12:00.42 |  2:51.13 |     54042    |    66879
        5  | 14:51.55 |  4:30.27 |     66880    |    87156
        6  | 19:22.07 |  3:04.55 |     87157    |   101011
        7  | 22:26.62 |  3:21.13 |    101012    |   116099
        8  | 25:48.00 |  3:58.72 |    116100    |   134021
        9  | 29:46.72 |  4:52.70 |    134022    |   155991
       10  | 34:39.67 |  5:27.35 |    155992    |   180551
       11  | 40:07.27 |  2:19.25 |    180552    |   191001
       12  | 42:26.52 |  4:24.70 |    191002    |   210871
       13  | 46:51.47 |  5:21.43 |    210872    |   234989
       14  | 52:13.15 |  1:20.02 |    234990    |   240991
       15  | 53:33.17 |  5:33.58 |    240992    |   266024
       16  | 59:07.00 |  4:55.57 |    266025    |   288206
       17  | 64:02.57 |  2:59.30 |    288207    |   301661
       18  | 67:02.12 |  2:43.35 |    301662    |   313921
       19  | 69:45.47 |  5:40.28 |    313922    |   339449

Range status and errors

Selected range

     Filename C:\Music\DJ Robert Miles - In The Mix.wav

     Peak level 100.0 %
     Extraction speed 3.5 X
     Range quality 100.0 %
     Test CRC 1B977226
     Copy CRC 1B977226
     Copy OK

No errors occurred

AccurateRip summary

Track  1  accurately ripped (confidence 2)  [F3B3587A]  (AR v1)
Track  2  accurately ripped (confidence 2)  [3E7CA32A]  (AR v1)
Track  3  accurately ripped (confidence 2)  [AB79B016]  (AR v1)
Track  4  accurately ripped (confidence 2)  [C2F9C9AF]  (AR v1)
Track  5  accurately ripped (confidence 2)  [1B227D38]  (AR v1)
Track  6  accurately ripped (confidence 2)  [EE1B5E06]  (AR v1)
Track  7  accurately ripped (confidence 2)  [802306DD]  (AR v1)
Track  8  accurately ripped (confidence 2)  [43DFDEA0]  (AR v1)
Track  9  accurately ripped (confidence 2)  [A14575D3]  (AR v1)
Track 10  accurately ripped (confidence 2)  [00224B9C]  (AR v1)
Track 11  accurately ripped (confidence 2)  [33CBDA2D]  (AR v1)
Track 12  accurately ripped (confidence 2)  [8A651FD4]  (AR v1)
Track 13  accurately ripped (confidence 2)  [58C52F12]  (AR v1)
Track 14  accurately ripped (confidence 2)  [A715CBBA]  (AR v1)
Track 15  accurately ripped (confidence 2)  [78D4BAD6]  (AR v1)
Track 16  accurately ripped (confidence 2)  [CCEA9A89]  (AR v1)
Track 17  accurately ripped (confidence 2)  [7261FEF9]  (AR v1)
Track 18  accurately ripped (confidence 2)  [B9F81A1D]  (AR v1)
Track 19  accurately ripped (confidence 1)  [D93B9915]  (AR v1)

All tracks accurately ripped

End of status report

---- CUETools DB Plugin V2.1.6

[CTDB TOCID: Z7GwWy9r9Kwkt8jGx.hKqOYinhA-] found
Submit result: already submitted
Track | CTDB Status
  1   | (5/5) Accurately ripped
  2   | (5/5) Accurately ripped
  3   | (5/5) Accurately ripped
  4   | (5/5) Accurately ripped
  5   | (5/5) Accurately ripped
  6   | (5/5) Accurately ripped
  7   | (5/5) Accurately ripped
  8   | (5/5) Accurately ripped
  9   | (5/5) Accurately ripped
 10   | (5/5) Accurately ripped
 11   | (5/5) Accurately ripped
 12   | (5/5) Accurately ripped
 13   | (5/5) Accurately ripped
 14   | (5/5) Accurately ripped
 15   | (5/5) Accurately ripped
 16   | (5/5) Accurately ripped
 17   | (5/5) Accurately ripped
 18   | (5/5) Accurately ripped
 19   | (5/5) Accurately ripped

==== Log checksum 5373DAC6CB7603A60F87AABE863E1ACA49DFC5D19E8FCBA02086E6406D1A6BBB ====
Код: Выделить всё
REM GENRE Trance
REM DATE 1997
REM DISCID 1211AE13
REM COMMENT "ExactAudioCopy v1.3"
PERFORMER "Various"
TITLE "DJ Robert Miles - In The Mix"
REM COMPOSER ""
FILE "DJ Robert Miles - In The Mix.flac" WAVE
  TRACK 01 AUDIO
    TITLE "Offshore"
    PERFORMER "Chicane"
    REM COMPOSER ""
    INDEX 01 00:00:00
  TRACK 02 AUDIO
    TITLE "Inner City Life"
    PERFORMER "Goldie"
    REM COMPOSER ""
    INDEX 01 04:14:17
  TRACK 03 AUDIO
    TITLE "Geomantik"
    PERFORMER "Prana"
    REM COMPOSER ""
    INDEX 01 07:49:47
  TRACK 04 AUDIO
    TITLE "Track 7:22"
    PERFORMER "D SAW"
    REM COMPOSER ""
    INDEX 01 12:00:42
  TRACK 05 AUDIO
    TITLE "Magnetic Field"
    PERFORMER "Analogue Silence"
    REM COMPOSER ""
    INDEX 01 14:51:55
  TRACK 06 AUDIO
    TITLE "Transmutation"
    PERFORMER "L.S.G."
    REM COMPOSER ""
    INDEX 01 19:22:07
  TRACK 07 AUDIO
    TITLE "Ballistique (Force Mass Motion Remix)"
    PERFORMER "Nunca"
    REM COMPOSER ""
    INDEX 01 22:26:62
  TRACK 08 AUDIO
    TITLE "Fable (Psycho Version - NRG Mix)"
    PERFORMER "Robert Miles"
    REM COMPOSER ""
    INDEX 00 25:47:74
    INDEX 01 25:48:00
  TRACK 09 AUDIO
    TITLE "House On Fire (Andy Ling's Aryan Vocal Mix)"
    PERFORMER "Arkarna"
    REM COMPOSER ""
    INDEX 01 29:46:72
  TRACK 10 AUDIO
    TITLE "Pearl's Girl"
    PERFORMER "Underworld"
    REM COMPOSER ""
    INDEX 01 34:39:67
  TRACK 11 AUDIO
    TITLE "Red Dragon"
    PERFORMER "SEM"
    REM COMPOSER ""
    INDEX 01 40:07:27
  TRACK 12 AUDIO
    TITLE "For Us"
    PERFORMER "Robert Miles"
    REM COMPOSER ""
    INDEX 01 42:26:52
  TRACK 13 AUDIO
    TITLE "Dream"
    PERFORMER "Clockwork"
    REM COMPOSER ""
    INDEX 01 46:51:47
  TRACK 14 AUDIO
    TITLE "The Gloom (Trance Dub)"
    PERFORMER "Castle Trancelott"
    REM COMPOSER ""
    INDEX 01 52:13:15
  TRACK 15 AUDIO
    TITLE "Man In The Moon (Robert Miles Emotional Remix)"
    PERFORMER "Csilla"
    REM COMPOSER ""
    INDEX 01 53:33:17
  TRACK 16 AUDIO
    TITLE "Sacred Cycles (Album Version)"
    PERFORMER "Peter Lazonby"
    REM COMPOSER ""
    INDEX 01 59:07:00
  TRACK 17 AUDIO
    TITLE "Thoughts (Neural Networks Mix)"
    PERFORMER "Altered State"
    REM COMPOSER ""
    INDEX 01 64:02:57
  TRACK 18 AUDIO
    TITLE "D.R.O.P."
    PERFORMER "Ascedence"
    REM COMPOSER ""
    INDEX 01 67:02:12
  TRACK 19 AUDIO
    TITLE "Hot Knives"
    PERFORMER "Nem Cru"
    REM COMPOSER ""
    INDEX 01 69:45:47
Код: Выделить всё
-----------------------

DON'T MODIFY THIS FILE

-----------------------

PERFORMER: auCDtect Task Manager, ver. 1.6.0 RC1 build 1.6.0.1
Copyright (c) 2008-2010 y-soft. All rights reserved
[url=http://y-soft.org]http://y-soft.org[/url]

ANALYZER: auCDtect: CD records authenticity detector, version 0.8.2
Copyright (c) 2004 Oleg Berngardt. All rights reserved.
Copyright (c) 2004 Alexander Djourik. All rights reserved.

FILE: DJ Robert Miles - In The Mix.flac
  Size: 534425601 Hash: 876C430D13E3A77501D2C2446DB7CA41 Accuracy: -m0
  Conclusion: CDDA 100%
  Signature: 1F21B21969FD55CE35E9468F80FBF3681E147C3A

#7
Код: Выделить всё
[b]Поглощение/вытеснение [/b]
[b]Только с согласия релизера[/b]
[b][u][i]pilligrim21[/b][/i][/u]
   
Торрент: Зарегистрирован [10 апр 2018, 07:07] Electronic Скачать торрент Магнет ссылка
Скачать торрент
[ Размер 11.58 КБ / Просмотров 9 ]
Статус:
Проверен
 
.torrent скачан: 13 раз
Размер: 526.08 МБ (551 632 545 байт)
   Стать Автором раздачи
 
 
Цитата

Вернуться в Electronic

Кто сейчас на конференции

Сейчас эту тему просматривают: нет зарегистрированных пользователей и гости: 1