VA - Anjunabeats in Miami (2018) [FLAC|Lossless|image + .cue] <Trance>

 Статистика раздачи 
Размер: 456.46 МБ   |  Зарегистрирован: 10 апр 2018, 07:07   |   .torrent скачан: 1 раз
Сидеров: 3  [ 0 байт/сек ]     Личеров: 1  [ 0 байт/сек ]  
  
Аватара пользователя
 
Раздал: 2.96 ТБ
Скачал: 10.85 ГБ
Ратио: 279.710
Сообщения: 181918
Стаж: 1 год 6 месяцев

VA - Anjunabeats in Miami (2018)

Жанр: Trance
Издание: Anjunabeats - ANJCDCO182ID
Продолжительность: 01:03:15
Кодек: FLAC
Битрейт: Lossless
Тип рипа: image + .cue
Треклист:

01. Above & Beyond & Zoe Johnston – Always feat. Zoe Johnston (Original Mix)
02. Above & Beyond & Richard Bedford – Northern Soul feat. Richard Bedford (Spencer Brown Remix)
03. Ilan Bluestone & Koven – Another Lover feat. Koven (Extended Mix)
04. Gabriel & Dresden & Sub Teal – Only Road feat. Sub Teal (Cosmic Gate Extended Mix)
05. Fatum – Chocolate (Original Mix)
06. Oliver Smith – Inside (Original Mix)
07. Sunny Lax – So Long (Original Mix)
08. Grum & Josep – The Love You Feel (Original Mix)
09. Genix & Kyau & Albert – Mantis (Original Mix)
10. Jaytech – Only Now (Original Mix)
11. ALPHA 9 – Skin (Extended Mix)
12. Tim Mason – Aalto (Original Mix)
Код: Выделить всё
Exact Audio Copy V1.3 from 2. September 2016

EAC extraction logfile from 10. March 2018, 8:23

Various Artists / Anjunabeats in Miami 2018

Used drive  : HL-DT-STDVD+-RW GH50N   Adapter: 1  ID: 0

Read mode               : Secure
Utilize accurate stream : Yes
Defeat audio cache      : Yes
Make use of C2 pointers : No

Combined read/write offset correction       : 0
Overread into Lead-In and Lead-Out          : No
Fill up missing offset samples with silence : Yes
Delete leading and trailing silent blocks   : No
Null samples used in CRC calculations       : Yes
Used interface                              : Native Win32 interface for Win NT & 2000

Used output format              : User Defined Encoder
Selected bitrate                : 768 kBit/s
Quality                         : High
Add ID3 tag                     : No
Command line compressor         : C:\Program Files (x86)\Exact Audio Copy\FLAC\FLAC.EXE
Additional command line options : -6 -V -T "ARTIST=%artist%" -T "TITLE=%title%" -T "ALBUM=%albumtitle%" -T "DATE=%year%" -T "TRACKNUMBER=%tracknr%" -T "GENRE=%genre%" -T "COMMENT=%comment%" -T "BAND=%albuminterpret%" -T "ALBUMARTIST=%albuminterpret%" -T "COMPOSER=%composer%" %haslyrics%--tag-from-file=LYRICS="%lyricsfile%"%haslyrics% -T "DISCNUMBER=%cdnumber%" -T "TOTALDISCS=%totalcds%" -T "TOTALTRACKS=%numtracks%" %hascover%--picture="%coverfile%"%hascover% %source% -o %dest%

TOC of the extracted CD

     Track |   Start  |  Length  | Start sector | End sector
    ---------------------------------------------------------
        1  |  0:00.00 |  8:26.51 |         0    |    38000
        2  |  8:26.51 |  6:02.61 |     38001    |    65211
        3  | 14:29.37 |  5:02.26 |     65212    |    87887
        4  | 19:31.63 |  3:54.24 |     87888    |   105461
        5  | 23:26.12 |  4:45.74 |    105462    |   126910
        6  | 28:12.11 |  5:33.56 |    126911    |   151941
        7  | 33:45.67 |  5:30.00 |    151942    |   176691
        8  | 39:15.67 |  6:00.00 |    176692    |   203691
        9  | 45:15.67 |  5:14.39 |    203692    |   227280
       10  | 50:30.31 |  4:26.23 |    227281    |   247253
       11  | 54:56.54 |  4:24.69 |    247254    |   267122
       12  | 59:21.48 |  3:53.40 |    267123    |   284637

Range status and errors

Selected range

     Filename C:\Users\FAM.GABE\Desktop\Various Artists\Anjunabeats in Miami 2018\Various Artists - Anjunabeats in Miami 2018.wav

     Peak level 100.0 %
     Extraction speed 8.0 X
     Range quality 100.0 %
     Test CRC 75D10824
     Copy CRC 75D10824
     Copy OK

No errors occurred

End of status report
Код: Выделить всё
REM GENRE Trance
REM DATE 2018
REM DISCID A80ED30C
REM COMMENT "ExactAudioCopy v1.3"
CATALOG 5039060343890
PERFORMER "Various Artists"
TITLE "Anjunabeats in Miami 2018"
REM COMPOSER "Various Artists"
FILE "Various Artists - Anjunabeats in Miami 2018.flac" WAVE
  TRACK 01 AUDIO
    TITLE "Northern Soul (feat. Richard Bedford) [Spencer Brown Remix]"
    PERFORMER "Above & Beyond"
    REM COMPOSER "Richard Bedford, Paavo Siljamдki, Jono Grant and Tony McGuinness"
    ISRC GBEWA1800540
    INDEX 01 00:00:00
  TRACK 02 AUDIO
    TITLE "The Love You Feel"
    PERFORMER "Grum & Josep"
    REM COMPOSER "Graeme Shepherd and Will Atkinson"
    ISRC GBEWA1800541
    INDEX 01 08:26:51
  TRACK 03 AUDIO
    TITLE "Only Now"
    PERFORMER "Jaytech"
    REM COMPOSER "James Cayzer"
    ISRC GBEWA1800542
    INDEX 01 14:29:37
  TRACK 04 AUDIO
    TITLE "Chocolate"
    PERFORMER "Fatum"
    REM COMPOSER "Bill Hamel, Chad Newbold, Bruce Karlsson, and Daniel Davis"
    ISRC GBEWA1800543
    INDEX 01 19:31:63
  TRACK 05 AUDIO
    TITLE "Skin"
    PERFORMER "ALPHA 9"
    REM COMPOSER "Artem Stolyarov"
    ISRC GBEWA1800544
    INDEX 01 23:26:12
  TRACK 06 AUDIO
    TITLE "Only Road (feat. Sub Teal) [Cosmic Gate Remix]"
    PERFORMER "Gabriel & Dresden"
    REM COMPOSER "Josh Gabriel, Brittany O'Neal and Dave Dresden"
    ISRC GBEWA1800545
    INDEX 01 28:12:11
  TRACK 07 AUDIO
    TITLE "Inside"
    PERFORMER "Oliver Smith"
    REM COMPOSER "Oliver J. Smith"
    ISRC GBEWA1800546
    INDEX 01 33:45:67
  TRACK 08 AUDIO
    TITLE "Mantis"
    PERFORMER "Kyau & Albert vs. Genix"
    REM COMPOSER "Ralph Kyau, Steven Moebius Albert and Damion Houchen"
    ISRC GBEWA1800547
    INDEX 01 39:15:67
  TRACK 09 AUDIO
    TITLE "So Long"
    PERFORMER "Sunny Lax"
    REM COMPOSER "Levente Mбrton"
    ISRC GBEWA1800548
    INDEX 01 45:15:67
  TRACK 10 AUDIO
    TITLE "Another Love (feat. Koven)"
    PERFORMER "ilan Bluestone"
    REM COMPOSER "Bluestone and Koven"
    ISRC GBEWA1800549
    INDEX 01 50:30:31
  TRACK 11 AUDIO
    TITLE "Aalto"
    PERFORMER "Tim Mason"
    REM COMPOSER "Tim Mason"
    ISRC GBEWA1800550
    INDEX 01 54:56:54
  TRACK 12 AUDIO
    TITLE "Always (feat. Zoл Johnston)"
    PERFORMER "Above & Beyond"
    REM COMPOSER "Zoл Johnston, Paavo Siljamдki, Jono Grant and Tony McGuinness"
    ISRC GBEWA1800551
    INDEX 01 59:21:48
Код: Выделить всё
-----------------------

DON'T MODIFY THIS FILE

-----------------------

PERFORMER: auCDtect Task Manager, ver. 1.6.0 RC1 build 1.6.0.1
Copyright (c) 2008-2010 y-soft. All rights reserved
[url=http://y-soft.org]http://y-soft.org[/url]

ANALYZER: auCDtect: CD records authenticity detector, version 0.8.2
Copyright (c) 2004 Oleg Berngardt. All rights reserved.
Copyright (c) 2004 Alexander Djourik. All rights reserved.

FILE: Various Artists - Anjunabeats in Miami 2018.flac
  Size: 478475341 Hash: 8005D49CDAA7967991CBF8F499A0D050 Accuracy: -m0
  Conclusion: MPEG 95%
  Signature: A372FF6CD3AA0F43A7333336367DFC5757394181

Время раздачи: 24/7 (до появления первых 3-5 скачавших)
Не забывайте говорить Спасибо. Не уходите с раздачи!   
Торрент: Зарегистрирован [10 апр 2018, 07:07] Для скачивания .torrent
необходима регистрация
Или скачать с помощью
MediaGet
Статус:
Проверен
 
.torrent скачан: 1 раз
Размер: 456.46 МБ (478 636 168 байт)
   Стать Автором раздачи
   
Цитата

Вернуться в Electronic

Кто сейчас на конференции

Сейчас эту тему просматривают: нет зарегистрированных пользователей и гости: 1