(Rap) SCHOKK - С большой дороги - 2011, FLAC (tracks+.cue), lossless

 Статистика раздачи 
Размер: 501.08 МБ   |  Зарегистрирован: 16 июл 2012, 00:49   |   .torrent скачан: 11 раз
Сидеров: 40  [ 0 байт/сек ]     Личеров: 142  [ 0 байт/сек ]  
  
Аватара пользователя
Администратор
Администратор
Автор темы
Раздал: 24.47 ТБ
Скачал: 388.83 ГБ
Ратио: 145.334
Сообщения: 5358
Стаж: 6 лет 11 месяцев 9 дней
Откуда: Lithuania

Schokk - С большой дороги


Оригинальное название: SCHOKK / С большой дороги
Страна: Россия
Производитель Диска - Лейбл: MMDC
Номер по каталогу: МДС-CD 045/11
Жанр: Rap
Дата выхода: 2011
Формат аудио: FLAC
Битрэйт: lossless
Тип рипа: tracks+.cue
Продолжительность: 1:05:39
01. Интро
02. Хроника прошлого
03. В своём мире
04. Улицы не спят
05. Локальный патриотизм
06. Мысли пачкают мозги (feat. Oxxxymiron)
07. Глаз на асфальте
08. Любовь Капитана
09. Фантазия
10. Не биф
11. Finis Coronat Opus
12. Верни мои слова
13. Перекур
14. Дневник
15. Vagabund
16. Нарисованный роман
17. МГМНТ 2 (feat. Oxxxymiron)
18. Аутро

Код: Выделить всё
Exact Audio Copy V0.99 prebeta 5 from 4. May 2009
Отчёт EAC об извлечении, выполненном 27. октября 2011, 13:06
SCHOKK / С большой дороги
Дисковод: LITE-ON DVDRW SHM-165P6S   Adapter: 5  ID: 0
Режим чтения                 : Достоверность
Использование точного потока : Да
Отключение кэша аудио        : Да
Использование указателей C2  : Нет
Коррекция смещения при чтении                     : 6
Способность читать области Lead-in и Lead-out     : Нет
Заполнение пропущенных сэмплов тишиной            : Да
Удаление блоков с тишиной в начале и конце        : Нет
При вычислениях CRC использовались нулевые сэмплы : Да
Интерфейс                                         : Установленный внешний ASPI-интерфейс
Обработка зазоров                                 : Добавлено к предыдущему треку
Выходной формат          : Пользовательский кодировщик
Выбранный битрейт        : 1024 kBit/s
Качество                 : Высокий
Добавление ID3-тэга      : Нет
Утилита сжатия           : D:\Soft\Exact Audio Copy\Flac\flac.exe
Дополнительные параметры : -8 -V -T "ARTIST=%a" -T "TITLE=%t" -T "ALBUM=%g" -T "DATE=%y" -T "TRACKNUMBER=%n" -T "GENRE=%m" -T "COMMENT=EAC FLAC -8" %s
TOC извлечённого CD
     Трек |   Старт  | Длительность | Начальный сектор | Конечный сектор
    ---------------------------------------------------------------------
       1  |  0:00.00 |    3:39.00   |           0      |      16424
       2  |  3:39.00 |    4:43.55   |       16425      |      37704
       3  |  8:22.55 |    3:32.74   |       37705      |      53678
       4  | 11:55.54 |    3:47.00   |       53679      |      70703
       5  | 15:42.54 |    4:05.00   |       70704      |      89078
       6  | 19:47.54 |    3:13.21   |       89079      |     103574
       7  | 23:01.00 |    3:35.00   |      103575      |     119699
       8  | 26:36.00 |    3:21.00   |      119700      |     134774
       9  | 29:57.00 |    2:53.00   |      134775      |     147749
      10  | 32:50.00 |    3:17.00   |      147750      |     162524
      11  | 36:07.00 |    3:31.00   |      162525      |     178349
      12  | 39:38.00 |    3:02.36   |      178350      |     192035
      13  | 42:40.36 |    2:27.00   |      192036      |     203060
      14  | 45:07.36 |    4:17.00   |      203061      |     222335
      15  | 49:24.36 |    3:55.00   |      222336      |     239960
      16  | 53:19.36 |    3:54.31   |      239961      |     257541
      17  | 57:13.67 |    5:44.03   |      257542      |     283344
      18  | 62:57.70 |    2:42.00   |      283345      |     295494
Трек  1
     Имя файла D:\Music\Lossless\SCHOKK - С большой дороги (FLAC) 2011\01 Интро.wav
     Длина предзазора  0:00:02.00
     Пиковый уровень 98.8 %
     Качество трека 100.0 %
     CRC теста 0CD68002
     CRC копии 0CD68002
     Копирование... OK
Трек  2
     Имя файла D:\Music\Lossless\SCHOKK - С большой дороги (FLAC) 2011\02 Хроника прошлого.wav
     Длина предзазора  0:00:01.00
     Пиковый уровень 99.5 %
     Качество трека 100.0 %
     CRC теста BAF9B593
     CRC копии BAF9B593
     Копирование... OK
Трек  3
     Имя файла D:\Music\Lossless\SCHOKK - С большой дороги (FLAC) 2011\03 В своём мире.wav
     Длина предзазора  0:00:01.00
     Пиковый уровень 100.0 %
     Качество трека 100.0 %
     CRC теста 75FBC33B
     CRC копии 75FBC33B
     Копирование... OK
Трек  4
     Имя файла D:\Music\Lossless\SCHOKK - С большой дороги (FLAC) 2011\04 Улицы не спят.wav
     Длина предзазора  0:00:01.00
     Пиковый уровень 99.8 %
     Качество трека 100.0 %
     CRC теста 54981408
     CRC копии 54981408
     Копирование... OK
Трек  5
     Имя файла D:\Music\Lossless\SCHOKK - С большой дороги (FLAC) 2011\05 Локальный патриотизм.wav
     Длина предзазора  0:00:01.00
     Пиковый уровень 98.8 %
     Качество трека 100.0 %
     CRC теста 0EC071A8
     CRC копии 0EC071A8
     Копирование... OK
Трек  6
     Имя файла D:\Music\Lossless\SCHOKK - С большой дороги (FLAC) 2011\06 Мысли пачкают мозги (feat. Oxxxymiron).wav
     Длина предзазора  0:00:01.00
     Пиковый уровень 98.8 %
     Качество трека 99.9 %
     CRC теста 1DB08BA2
     CRC копии 1DB08BA2
     Копирование... OK
Трек  7
     Имя файла D:\Music\Lossless\SCHOKK - С большой дороги (FLAC) 2011\07 Глаз на асфальте.wav
     Длина предзазора  0:00:01.00
     Пиковый уровень 98.8 %
     Качество трека 100.0 %
     CRC теста D79D0989
     CRC копии D79D0989
     Копирование... OK
Трек  8
     Имя файла D:\Music\Lossless\SCHOKK - С большой дороги (FLAC) 2011\08 Любовь Капитана.wav
     Длина предзазора  0:00:01.00
     Пиковый уровень 99.6 %
     Качество трека 100.0 %
     CRC теста E8156719
     CRC копии E8156719
     Копирование... OK
Трек  9
     Имя файла D:\Music\Lossless\SCHOKK - С большой дороги (FLAC) 2011\09 Фантазия.wav
     Длина предзазора  0:00:01.00
     Пиковый уровень 100.0 %
     Качество трека 99.9 %
     CRC теста F528B80D
     CRC копии F528B80D
     Копирование... OK
Трек 10
     Имя файла D:\Music\Lossless\SCHOKK - С большой дороги (FLAC) 2011\10 Не биф.wav
     Длина предзазора  0:00:01.00
     Пиковый уровень 99.7 %
     Качество трека 100.0 %
     CRC теста E048BA94
     CRC копии E048BA94
     Копирование... OK
Трек 11
     Имя файла D:\Music\Lossless\SCHOKK - С большой дороги (FLAC) 2011\11 Finis Coronat Opus.wav
     Длина предзазора  0:00:01.00
     Пиковый уровень 100.0 %
     Качество трека 100.0 %
     CRC теста B5D550B0
     CRC копии B5D550B0
     Копирование... OK
Трек 12
     Имя файла D:\Music\Lossless\SCHOKK - С большой дороги (FLAC) 2011\12 Верни мои слова.wav
     Длина предзазора  0:00:01.00
     Пиковый уровень 99.7 %
     Качество трека 100.0 %
     CRC теста CA42D9B3
     CRC копии CA42D9B3
     Копирование... OK
Трек 13
     Имя файла D:\Music\Lossless\SCHOKK - С большой дороги (FLAC) 2011\13 Перекур.wav
     Длина предзазора  0:00:01.00
     Пиковый уровень 98.8 %
     Качество трека 100.0 %
     CRC теста B94DC8A6
     CRC копии B94DC8A6
     Копирование... OK
Трек 14
     Имя файла D:\Music\Lossless\SCHOKK - С большой дороги (FLAC) 2011\14 Дневник.wav
     Длина предзазора  0:00:01.00
     Пиковый уровень 99.9 %
     Качество трека 99.9 %
     CRC теста A7BEAD71
     CRC копии A7BEAD71
     Копирование... OK
Трек 15
     Имя файла D:\Music\Lossless\SCHOKK - С большой дороги (FLAC) 2011\15 Vagabund.wav
     Длина предзазора  0:00:01.00
     Пиковый уровень 99.9 %
     Качество трека 100.0 %
     CRC теста 5B8DD421
     CRC копии 5B8DD421
     Копирование... OK
Трек 16
     Имя файла D:\Music\Lossless\SCHOKK - С большой дороги (FLAC) 2011\16 Нарисованный роман.wav
     Длина предзазора  0:00:01.00
     Пиковый уровень 99.6 %
     Качество трека 99.9 %
     CRC теста AAB49EF5
     CRC копии AAB49EF5
     Копирование... OK
Трек 17
     Имя файла D:\Music\Lossless\SCHOKK - С большой дороги (FLAC) 2011\17 МГМНТ 2 (feat. Oxxxymiron).wav
     Длина предзазора  0:00:01.00
     Пиковый уровень 98.8 %
     Качество трека 100.0 %
     CRC теста E10E7528
     CRC копии E10E7528
     Копирование... OK
Трек 18
     Имя файла D:\Music\Lossless\SCHOKK - С большой дороги (FLAC) 2011\18 Аутро.wav
     Длина предзазора  0:00:01.00
     Пиковый уровень 98.8 %
     Качество трека 100.0 %
     CRC теста B39D25EA
     CRC копии B39D25EA
     Копирование... OK
Ошибок не произошло
Конец отчёта

Код: Выделить всё
REM GENRE Rap
REM DATE 2011
REM DISCID 1D0F6312
REM COMMENT "ExactAudioCopy v0.99pb5"
PERFORMER "SCHOKK"
TITLE "С большой дороги"
FILE "01 Интро.wav" WAVE
  TRACK 01 AUDIO
    TITLE "Интро"
    PERFORMER "SCHOKK"
    INDEX 01 00:00:00
  TRACK 02 AUDIO
    TITLE "Хроника прошлого"
    PERFORMER "SCHOKK"
    INDEX 00 03:38:00
FILE "02 Хроника прошлого.wav" WAVE
    INDEX 01 00:00:00
  TRACK 03 AUDIO
    TITLE "В своём мире"
    PERFORMER "SCHOKK"
    INDEX 00 04:42:55
FILE "03 В своём мире.wav" WAVE
    INDEX 01 00:00:00
  TRACK 04 AUDIO
    TITLE "Улицы не спят"
    PERFORMER "SCHOKK"
    INDEX 00 03:31:74
FILE "04 Улицы не спят.wav" WAVE
    INDEX 01 00:00:00
  TRACK 05 AUDIO
    TITLE "Локальный патриотизм"
    PERFORMER "SCHOKK"
    INDEX 00 03:46:00
FILE "05 Локальный патриотизм.wav" WAVE
    INDEX 01 00:00:00
  TRACK 06 AUDIO
    TITLE "Мысли пачкают мозги (feat. Oxxxymiron)"
    PERFORMER "SCHOKK"
    INDEX 00 04:04:00
FILE "06 Мысли пачкают мозги (feat. Oxxxymiron).wav" WAVE
    INDEX 01 00:00:00
  TRACK 07 AUDIO
    TITLE "Глаз на асфальте"
    PERFORMER "SCHOKK"
    INDEX 00 03:12:21
FILE "07 Глаз на асфальте.wav" WAVE
    INDEX 01 00:00:00
  TRACK 08 AUDIO
    TITLE "Любовь Капитана"
    PERFORMER "SCHOKK"
    INDEX 00 03:34:00
FILE "08 Любовь Капитана.wav" WAVE
    INDEX 01 00:00:00
  TRACK 09 AUDIO
    TITLE "Фантазия"
    PERFORMER "SCHOKK"
    INDEX 00 03:20:00
FILE "09 Фантазия.wav" WAVE
    INDEX 01 00:00:00
  TRACK 10 AUDIO
    TITLE "Не биф"
    PERFORMER "SCHOKK"
    INDEX 00 02:52:00
FILE "10 Не биф.wav" WAVE
    INDEX 01 00:00:00
  TRACK 11 AUDIO
    TITLE "Finis Coronat Opus"
    PERFORMER "SCHOKK"
    INDEX 00 03:16:00
FILE "11 Finis Coronat Opus.wav" WAVE
    INDEX 01 00:00:00
  TRACK 12 AUDIO
    TITLE "Верни мои слова"
    PERFORMER "SCHOKK"
    INDEX 00 03:30:00
FILE "12 Верни мои слова.wav" WAVE
    INDEX 01 00:00:00
  TRACK 13 AUDIO
    TITLE "Перекур"
    PERFORMER "SCHOKK"
    INDEX 00 03:01:36
FILE "13 Перекур.wav" WAVE
    INDEX 01 00:00:00
  TRACK 14 AUDIO
    TITLE "Дневник"
    PERFORMER "SCHOKK"
    INDEX 00 02:26:00
FILE "14 Дневник.wav" WAVE
    INDEX 01 00:00:00
  TRACK 15 AUDIO
    TITLE "Vagabund"
    PERFORMER "SCHOKK"
    INDEX 00 04:16:00
FILE "15 Vagabund.wav" WAVE
    INDEX 01 00:00:00
  TRACK 16 AUDIO
    TITLE "Нарисованный роман"
    PERFORMER "SCHOKK"
    INDEX 00 03:54:00
FILE "16 Нарисованный роман.wav" WAVE
    INDEX 01 00:00:00
  TRACK 17 AUDIO
    TITLE "МГМНТ 2 (feat. Oxxxymiron)"
    PERFORMER "SCHOKK"
    INDEX 00 03:53:31
FILE "17 МГМНТ 2 (feat. Oxxxymiron).wav" WAVE
    INDEX 01 00:00:00
  TRACK 18 AUDIO
    TITLE "Аутро"
    PERFORMER "SCHOKK"
    INDEX 00 05:43:03
FILE "18 Аутро.wav" WAVE
    INDEX 01 00:00:00

Дополнительное описание: Дебютный альбом SCHOKK'а подводит черту под четырьмя годами агрессии, негатива и хаоса, который устроил в русском рэпе появившийся из ниоткуда безапелляционный эмигрант. SCHOKK добился своего: его услышали, о нем заговорили, и вот он выпускает свой первый полноценный релиз «С большой дороги», поражающий даже до прослушивания поистине эпохальным дизайном от 5NAK'а. Второе, на что обращаешь внимание еще во время прослушивания интро к альбому - насколько вырос SCHOKK как исполнитель со времен самопальных микстейпов. Наглость и маниакальный бэттл-менталитет никуда не делись, чему примером являются такие треки, как «Finis Coronat Opus» и мощнейшее «Аутро", но они уступили центральное место на альбоме воспоминаниям о сложном прошлом исполнителя: о непростых взаимоотношениях с законом и харам-экономике («Хроника прошлого», «Улицы не спят»), о наркомании и эмигрантском одиночестве («Мысли пачкают мозги»), о межнациональных конфликтах на юге Германии («Локальный патриотизм»). Эти треки подчеркнуто автобиографичны, в них масса реальных имен и подробностей и слушаются они, как боевик в форме аудио-книги. Не менее важной является тема взаимоотношений с противоположным полом («Нарисованный роман», «Верни мои слова»): «Мне ваши чувства, будто в чай соль с перцем, любовь - это зубная боль в сердце»... Здесь тоже все через край, до кровавых слез вместо стандартных розовых соплей.
Еще до альбома SCHOKK произвел переворот в массовом сознании, сделав диссы и оскорбления социально приемлимой частью русского рэпа; точно также, последовательно высмеивая моду на безразмерную хип-хоп одежду, он непосредственно повлиял на то, как хочет на сегодняшний день выглядеть и одеваться молодежь, слушающая русский рэп. На альбоме SCHOKK следует этой традиции первопроходца и не только развеивает мифы о позорности кунилингуса на «МГМНТ 2» («Пацанские темы - адидаса носителям; сексуальная скованность у нас непростительна»), но и первым придает избитой теме «рэпа за тяжелую уличную жизнь» второе дыхание с помощью действительно мощной подачи и самобытного выбора слов. Альбом «С большой дороги» - не для любителей умеренности, корректности и хорошего тона, его автор плюется желчью, рвет рубаху на груди, искренне кается и снова грешит: «И я надеюсь, мне простит однажды один из трех: Яхве, Господь или Аллах, но дай мне шанс, я все ошибки повторил бы дважды». Но прослушав альбом, уже не приходится сомневаться в том, что даже на такой проторенной ранее большой дороге, как русский рэп, встречаются свои разбойники. И это очень радует.
   
Торрент: Зарегистрирован [16 июл 2012, 00:49] Rap, Hip-Hop, R'n'B Скачать торрент Магнет ссылка
Скачать торрент
[ Размер 21.56 КБ / Просмотров 330 ]
Статус:
Проверен
 
.torrent скачан: 11 раз
Размер: 501.08 МБ (525 422 624 байт)
   
 
 
Цитата
  • Похожие торренты
    Ответы
    Просмотры
    Последнее сообщение

Вернуться в Rap, Hip-Hop, R'n'B

Кто сейчас на конференции

Сейчас эту тему просматривают: нет зарегистрированных пользователей и гости: 1