Sade - Bring Me Home - Live 2011 [2012, Soul, Soft Jazz, BDRip 1080p]

 Статистика раздачи 
Размер: 13.12 ГБ   |  Зарегистрирован: 04 июл 2012, 20:44   |   .torrent скачан: 10 раз
Сидеров: 101  [ 0 байт/сек ]     Личеров: 10  [ 0 байт/сек ]  
  
Аватара пользователя
Главный редактор
Главный редактор
Автор темы
Раздал: 10.09 ТБ
Скачал: 1.76 ТБ
Ратио: 6.147
Сообщения: 3363
Стаж: 6 лет 11 месяцев 1 день
Откуда: Санкт-Петербург

Sade - Bring Me Home - Live 2011


Оригинальное название: Sade - Bring Me Home - Live 2011
Дата выхода: May 22, 2012
Жанр: Soul, Soft Jazz
Перевод: Оригинал
Продолжительность: 02:02:08
Режиссёр: Софи Мюллер
Исполнитель: Sade
Описание: В 2011 году, после 10-летнего молчания, Sade вернулась на сцену и дала концерты во многих странах мира по Европе, Северной и Южной Америке и, в том числе России. Группа проехала с турне по одной только Северной Америке долгих три месяца и дала 54 концерта в поддержку мультиплатинового альбома "Soldier of Love", который оказался среди самых прибыльных за прошлый год.
Режиссёром фильма о концерте в очередной раз стала широко известная Софи Мюллер, которая снимала многочисленные концерты в ходе американской части тура, и, в итоге выбрала самые интересные моменты различных выступлений для создания фильма. В ходе турне Шадэ Аду и её группа исполнили 22 песни, среди которых как самые свежие, так и её самые знаменитые композиции, которые она представила на "самой креативной сценической постановке", судя по номинации Pollstar. Благодаря столь задушевным вибрациям, захватывающей постановке и ошеломляющим зрительным образам, этот концерт станет непременным подарком любому поклоннику прекрасной музыки "Sade"!
Названный, в частности, "лучшим концертом года" газетой Baltimore Sun, прошлогодний тур будет представлен 22 мая 2012 года в виде DVD/CD и Blu-ray диска под общим названием “Bring Me Home – Live 2011”
Контейнер: MKV
Качество HD: BDRip 1080p
Формат аудио: DTS
Формат видео: H.264
Видео: 1920x1080 at 23.976fps, x264 (L4.1, 2Pass), ~13,9 Mbps avg
Аудио: 48 kHz, DTS, 3/2 (L,C,R,l,r) + LFE ch, ~1510.00 kbps avg
01. Soldier Of Love
02. Your Love Is King
03. Skin
04. Kiss Of Life
05. Love Is Found
06. In Another Time
07. Smooth Operator
08. Jezebel
09. Bring Me Home
10. Is It A Crime
11. Love Is Stronger Than Pride
12. All About Our Love
13. Paradise
14. Nothing Can Come Between Us
15. Morning Bird
16. King Of Sorrow
17. The Sweetest Taboo
18. The Moon And The Sky
19. Pearls
20. No Ordinary Love
21. By Your Side
22. Cherish the Day

Код: Выделить всё
Общее
Уникальный идентификатор : 224082493880325801901453558979390508660 (0xA894B7EF7741F8DE93C29A42F5D68E74)
Полное имя : O:\Sade - Bring Me Home - Live 2011 (2012) BDRip 1080p\Sade - Bring Me Home Live 2011.mkv
Формат : Matroska
Версия формата : Version 2
Размер файла : 13,1 Гбайт
Продолжительность : 2 ч. 2 м.
Общий поток : 15,4 Мбит/сек
Дата кодирования : UTC 2012-05-22 12:48:51
Программа кодирования : mkvmerge v5.5.0 ('Healer') built on Apr 6 2012 21:43:24
Библиотека кодирования : libebml v1.2.3 + libmatroska v1.3.0

Видео
Идентификатор : 1
Формат : AVC
Формат/Информация : Advanced Video Codec
Профиль формата : [email protected]
Параметр CABAC формата : Да
Параметр ReFrames формата : 4 кадра
Идентификатор кодека : V_MPEG4/ISO/AVC
Продолжительность : 2 ч. 2 м.
Битрейт : 13,9 Мбит/сек
Ширина : 1920 пикселей
Высота : 1080 пикселей
Соотношение сторон : 16:9
Частота кадров : 23,976 кадра/сек
Цветовое пространство : YUV
Субдискретизация насыщенности : 4:2:0
Битовая глубина : 8 бит
Тип развёртки : Прогрессивная
Бит/(Пиксели*Кадры) : 0.279
Размер потока : 11,6 Гбайт (88%)
Библиотека кодирования : x264 core 124 r2197 69a0443
Настройки программы : cabac=1 / ref=4 / deblock=1:0:0 / analyse=0x3:0x133 / me=umh / subme=8 / psy=1 / psy_rd=1.00:0.00 / mixed_ref=1 / me_range=16 / chroma_me=1 / trellis=1 / 8x8dct=1 / cqm=0 / deadzone=21,11 / fast_pskip=0 / chroma_qp_offset=-2 / threads=6 / sliced_threads=0 / nr=0 / decimate=1 / interlaced=0 / bluray_compat=0 / constrained_intra=0 / bframes=3 / b_pyramid=2 / b_adapt=1 / b_bias=0 / direct=1 / weightb=1 / open_gop=0 / weightp=2 / keyint=250 / keyint_min=23 / scenecut=40 / intra_refresh=0 / rc_lookahead=40 / rc=2pass / mbtree=1 / bitrate=13882 / ratetol=1.0 / qcomp=0.60 / qpmin=0 / qpmax=69 / qpstep=4 / cplxblur=20.0 / qblur=0.5 / ip_ratio=1.40 / aq=1:1.00
Язык : English
Default : Да
Forced : Нет

Аудио
Идентификатор : 2
Формат : DTS
Формат/Информация : Digital Theater Systems
Идентификатор кодека : A_DTS
Продолжительность : 2 ч. 2 м.
Вид битрейта : Постоянный
Битрейт : 1510 Кбит/сек
Каналы : 6 каналов
Расположение каналов : Front: L C R, Side: L R, LFE
Частота : 48,0 КГц
Битовая глубина : 24 бит
Метод сжатия : С потерями
Размер потока : 1,29 Гбайт (10%)
Default : Да
Forced : Нет


   
Торрент: Зарегистрирован [04 июл 2012, 20:44] Скачать торрент Магнет ссылка
Скачать торрент
[ Размер 33.26 КБ / Просмотров 244 ]
Статус:
Проверен
 
.torrent скачан: 10 раз
Размер: 13.12 ГБ (14 086 499 840 байт)
   
 
 
Цитата
  • Похожие торренты
    Ответы
    Просмотры
    Последнее сообщение

Вернуться в Music from other genres

Кто сейчас на конференции

Сейчас эту тему просматривают: нет зарегистрированных пользователей и гости: 1