[Кардиоваскулярная профилактика/ Кардиология/Геронтология]Орлова Я.А.МНОЦ МГУ им. М.В. Ломоносова.Снижение калорийности пищи – ключ к управлению старением.[2015, видеоматериал для специалистов здравоохранения,HDTVRip]

 Статистика раздачи 
Размер: 125.76 МБ   |  Зарегистрирован: 04 апр 2018, 17:35   |   .torrent скачан: 0 раз
Сидеров: 10  [ 0 байт/сек ]     Личеров: 10  [ 0 байт/сек ]  
  
Аватара пользователя
 
Раздал: 25.11 ГБ
Скачал: 416.25 ГБ
Ратио: 0.140
Сообщения: 176863
Стаж: 7 лет 1 месяц 8 дней

Орлова Я.А.МНОЦ МГУ им. М.В. Ломоносова.Снижение калорийности пищи – ключ к управлению старением.[2015, видеоматериал для специалистов здравоохранения,HDTVRip]
Страна: Россия
Год выпуска: 2015
Продолжительность: 00:28:44
Перевод: Не требуется
Язык: русский
Русские субтитры: нет
Описание: Проблемы старения, влияния на старение, снижение вероятности возрастассоциированных заболеваний.Рассматривается благоприятные эффекты метформина, небиволола, физической нагрузки, низкокалорийного питания. Рекомендуется как для специалистов здравоохранения, так и для пациентов.
Докладчик :Орлова Яна Артуровна – д.м.н., зам. директора МНОЦ МГУ им. М.В. Ломоносова.
Качество видео: HDTVRip
Формат видео
: MP4
Видео: AVC,417 Кбит/сек,1280 Х 720 px,16:9,25 кадров/сек
Аудио: AAC,192 Кбит/сек,2 канала,44,1 КГц
Общее
Полное имя : C:\Users\User\Desktop\Снижение калорийности пищи – ключ к управлению старением.Орлова Я.А.,д.м.н.2015.mp4
Формат : MPEG-4
Профиль формата : Base Media / Version 2
Идентификатор кодека : mp42
Размер файла : 126 Мбайт
Продолжительность : 28 м.
Режим общего битрейта : Переменный
Общий поток : 612 Кбит/сек
Дата кодирования : UTC 2015-02-16 09:06:47
Дата пометки : UTC 2015-02-16 09:06:47
gsst : 0
gstd : 1724568
gssd : B0AFCEB61MH1424444385246919
Видео
Идентификатор : 1
Формат : AVC
Формат/Информация : Advanced Video Codec
Профиль формата : [email protected]
Параметр CABAC формата : Да
Параметр ReFrames формата : 1 кадр
Параметр GOP формата : M=1, N=60
Идентификатор кодека : avc1
Идентификатор кодека/Информация : Advanced Video Coding
Продолжительность : 28 м.
Битрейт : 417 Кбит/сек
Максимальный битрейт : 3389 Кбит/сек
Ширина : 1280 пикселей
Высота : 720 пикселей
Соотношение сторон : 16:9
Режим частоты кадров : Постоянный
Частота кадров : 25,000 кадров/сек
Цветовое пространство : YUV
Субдискретизация насыщенности : 4:2:0
Битовая глубина : 8 бит
Тип развёртки : Прогрессивная
Бит/(Пиксели*Кадры) : 0.018
Размер потока : 85,8 Мбайт (68%)
Дата пометки : UTC 2015-02-16 09:06:55
Аудио
Идентификатор : 2
Формат : AAC
Формат/Информация : Advanced Audio Codec
Профиль формата : LC
Идентификатор кодека : 40
Продолжительность : 28 м.
Вид битрейта : Переменный
Битрейт : 192 Кбит/сек
Максимальный битрейт : 202 Кбит/сек
Каналы : 2 канала
Расположение каналов : Front: L R
Частота : 44,1 КГц
Метод сжатия : С потерями
Размер потока : 39,5 Мбайт (31%)
Язык : English
Дата кодирования : UTC 2015-02-16 09:06:51
Дата пометки : UTC 2015-02-16 09:06:55
Также см. Общество специалистов по сердечной недостаточности, Российское кардиологическое общество . Сердце.Журнал для практикующих врачей[2013-2015 г., PDF, RUS]
Также см. Орлова Я.А. Ограничение калорийности пищи – ключ к профилактике сосудистого старения. Системные гипертензии.2015;№ 1
Релиз группы
Вам понравилась раздача? Напишите, пожайлуста что-нибудь в этом топике. Это продлит раздаче жизнь. Кнопка "Спасибо" в реальности этого не делает.
   
Торрент: Зарегистрирован [04 апр 2018, 17:35] Скачать торрент Магнет ссылка
Скачать торрент
[ Размер 20.23 КБ / Просмотров 10 ]
Статус:
Проверен
 
.torrent скачан: 0 раз
Размер: 125.76 МБ (131 873 732 байт)
   Стать Автором раздачи
 
 
Цитата
  • Похожие торренты
    Ответы
    Просмотры
    Последнее сообщение

Вернуться в Здоровье

Кто сейчас на конференции

Сейчас эту тему просматривают: нет зарегистрированных пользователей и гости: 1