Майкл Грегер - Выдержки из научных исследований в области здоровья и питания (Серии 1-45 из 45) [2017, США, DVDRip]

 Статистика раздачи 
Размер: 1.03 ГБ   |  Зарегистрирован: 04 апр 2018, 17:33   |   .torrent скачан: 1 раз
Сидеров: 0  [ 0 байт/сек ]     Личеров: 0  [ 0 байт/сек ]  
  
Аватара пользователя
 
Раздал: 229.37 ГБ
Скачал: 423.89 ГБ
Ратио: 0.621
Сообщения: 183802
Стаж: 7 лет 4 месяца 1 день

Майкл Грегер - Выдержки из научных исследований в области здоровья и питания (Серии 1-45 из 45)
Страна: США
Год выпуска: 2017
Продолжительность: 02:53:27
Перевод: Любительский (двухголосый закадровый)
Язык: Русский
Русские субтитры: нет
Описание: Подборка видео подкастов американского врача Майкла Грегера по вопросам научных иследованний в области общественного здравоохранения и питания.
№1 Диета или упражнения, что эффективнее
№2 Встать на защиту своего здоровья. Работа за беговой дорожкой.
№3 Натуральное лекарство от импотенции.
№4 Что лучше зеленого чая Михаэль Грегер
№5 Получают ли вегетарианцы достаточно белка
№6 Лучше заваривать чай, горячим или холодным Исследование.
№7 Влияние диеты на рак груди.
№8 Низкоуглеводные диеты и сердечно-сосудистые заболевания
№9 Лечение акне, прыщей и угрей спасает жизни
№10 Слабоумие у веганов и мясоедов.
№11 Как диетическая кола и сахарозаменители помогают набрать вес.
№12 Переедание от низкокалорийных сахарозаменителей.
№13 Можно ли избавиться от зависимости от сладкого
№14 Вегетарианцы моложе на уровне ДНК.
№15 Детские запоры от коровьего молока.
№16 Веганство и близнецы - есть ли связь
№17 Антиоксиданты, депрессия и частота секса.
№18 Польза яиц и размер холестерина.
№19 Камни в почках лечатся питанием.
№20 Допинг для спортсменов свекольным соком. Без химии.
№21 Лучший метод детоксикации. Исследования брокколи.
№22 Можно ли сьесть слишком много брокколи
№23 Потребление мяса приводит к лишнему весу Исследование
№24 Почему вегетарианцы стройнее или кишечная флора и ожирение.
№25 Облегчает ли соя приливы при менопаузе
№26 Мясо влияет на размер пениса Промышленные токсины в рыбе.
№27 Лечение СДВГ без стимуляторов.
№28 Почему мы стареем
№29 Ограничение употребления мяса и долгая жизнь.
№30 B12 и здоровье сосудов у всеядных, веганов и вегетарианцев.
№31 Предотвращение рака путем подавления энзима ТОК.
№32 молочный эстроген и мужская плодовитость.
№33 Ограничение метионина как способ борьбы с раком.
№34 Эффект помидора_ почему докгора игнорируют эффективное лечение.
№35 Как есть больше, а весить меньше.
№36 Продление жизни с помощью ограничения потребления метионина.
№37 Должны ли мы принимать добавки эйкозапентаеновой и докозагексаеновой омега-3
№38 Есть ли смысл выбирать какие именно растения есть Противовоспалительные антиоксиданты.
№39 Проращиваем антиоксиданты. Уровень антиоксидантов в разные дни проращивания
№40 как противостоять воспалительным процессам старения
№41 Бобовые снижают уровень сахара в крови даже на следующий день.
№42 Веганам нужны добавки ДГК и ЭПК Омега-3 для сохранения работы мозга
№43 Рейтинг овощей-борцов с раком.
№44 Сердечно сосудистые заболевания начинаются в детстве.
№45 Лук и чеснок против тромбов Сырой или вареный
Код: Выделить всё
Общее
Полное имя                               : C:\Users\user\Downloads\Майкл Грегер - 45 подкастов о научных исследованиях в области здоровья и питания\№2 Встать на защиту своего здоровья. Работа за беговой дорожкой..mp4
Формат                                   : MPEG-4
Профиль формата                          : Base Media / Version 2
Идентификатор кодека                     : mp42 (isom/mp42)
Размер файла                             : 17,7 Мбайт
Продолжительность                        : 2 м. 15 с.
Режим общего битрейта                    : Переменный
Общий поток                              : 1100 Кбит/сек
Дата кодирования                         : UTC 2016-08-13 17:43:59
Дата пометки                             : UTC 2016-08-13 17:43:59
gsst                                     : 0
gstd                                     : 135418
Видео
Идентификатор                            : 1
Формат                                   : AVC
Формат/Информация                        : Advanced Video Codec
Профиль формата                          : Main@L3.1
Параметр CABAC формата                   : Да
Параметр ReFrames формата                : 3 кадра
Идентификатор кодека                     : avc1
Идентификатор кодека/Информация          : Advanced Video Coding
Продолжительность                        : 2 м. 15 с.
Битрейт                                  : 970 Кбит/сек
Ширина                                   : 1280 пикселей
Высота                                   : 720 пикселей
Соотношение сторон                       : 16:9
Режим частоты кадров                     : Постоянный
Частота кадров                           : 30,000 кадров/сек
Цветовое пространство                    : YUV
Субдискретизация насыщенности            : 4:2:0
Битовая глубина                          : 8 бит
Тип развёртки                            : Прогрессивная
Бит/(Пиксели*Кадры)                      : 0.035
Размер потока                            : 15,7 Мбайт (88%)
Заголовок                                : ISO Media file produced by Google Inc.
Дата кодирования                         : UTC 2016-08-13 17:43:59
Дата пометки                             : UTC 2016-08-13 17:43:59
Аудио
Идентификатор                            : 2
Формат                                   : AAC
Формат/Информация                        : Advanced Audio Codec
Профиль формата                          : LC
Идентификатор кодека                     : 40
Продолжительность                        : 2 м. 15 с.
Вид битрейта                             : Переменный
Битрейт                                  : 126 Кбит/сек
Каналы                                   : 2 канала
Расположение каналов                     : Front: L R
Частота                                  : 44,1 КГц
Частота кадров                           : 43,066 кадра/сек (1024 spf)
Метод сжатия                             : С потерями
Размер потока                            : 2,03 Мбайт (11%)
Заголовок                                : ISO Media file produced by Google Inc.
Дата кодирования                         : UTC 2016-08-13 17:43:59
Дата пометки                             : UTC 2016-08-13 17:43:59
Качество видео: DVDRip
Формат видео: MP4
Видео: AVC/H.264, 1280x720, ~710 Кбит/сек
Аудио: MP3, 2 ch, 128 Кбит/сек
Не забывайте говорить Спасибо. Не уходите с раздачи!   
Торрент: Зарегистрирован [04 апр 2018, 17:33] Для скачивания .torrent
необходима регистрация
Или скачать с помощью
MediaGet
Статус:
Проверен
 
.torrent скачан: 1 раз
Хэш: 177d4df233e517121889938f25936477984a7c8d
Размер: 1.03 ГБ (1 101 046 561 байт)
   Стать Автором раздачи
   
Цитата
  • Похожие торренты
    Ответы
    Просмотры
    Последнее сообщение

Вернуться в Здоровье

Кто сейчас на конференции

Сейчас эту тему просматривают: нет зарегистрированных пользователей и гости: 1