Гимнастика Хаду (2011) - Звиад Арабули [Обучающее Видео, HDTVRip]

 Статистика раздачи 
Размер: 1.2 ГБ   |  Зарегистрирован: 04 апр 2018, 17:33   |   .torrent скачан: 0 раз
Сидеров: 14  [ 0 байт/сек ]     Личеров: 4  [ 0 байт/сек ]  
  
Аватара пользователя
 
Раздал: 25.11 ГБ
Скачал: 416.25 ГБ
Ратио: 0.140
Сообщения: 169413
Стаж: 6 лет 10 месяцев 15 дней

Гимнастика Хаду - Звиад Арабули
Страна: Россия
Год выпуска: 2011
Продолжительность: 01:01:35
Перевод: Не требуется
Язык: Русский
Описание:
Полный комплекс упражнений ХАДУ 2011 года в исполнении автора методики.
Доп. информация: Плюсом этого видео является, что автора методики Звиада Арабули здесь видно одновременно с трёх ракурсов.
Качество видео: HDTVRip
Формат видео: MP4
Видео: MPEG4 Video (mp4v) 1280x720 25.00fps
Аудио: MPEG AAC Audio (mp4a) 48000Hz stereo
Общее
Полное имя : G:\torry\my\Гимнастика Хаду (комплекс 2011 года)\Хаду_комплекс_2011_года.mp4
Формат : MPEG-4
Профиль формата : Base Media / Version 2
Идентификатор кодека : mp42 (mp42/isom)
Размер файла : 1,20 Гбайт
Продолжительность : 1 ч. 1 м.
Режим общего битрейта : Переменный
Общий поток : 2798 Кбит/сек
Дата кодирования : UTC 2015-06-04 03:53:20
Дата пометки : UTC 2015-06-04 03:53:20
Видео
Идентификатор : 1
Формат : MPEG-4 Visual
Профиль формата : [email protected]
Параметр BVOP формата : Нет
Параметр QPel формата : Нет
Параметр GMC формата : Без точки перехода
Параметр матрицы формата : Default (H.263)
Идентификатор кодека : mp4v-20
Продолжительность : 1 ч. 1 м.
Вид битрейта : Переменный
Битрейт : 2602 Кбит/сек
Максимальный битрейт : 7699 Кбит/сек
Ширина : 1280 пикселей
Высота : 720 пикселей
Соотношение сторон : 16:9
Режим частоты кадров : Постоянный
Частота кадров : 25,000 кадров/сек
Цветовое пространство : YUV
Субдискретизация насыщенности : 4:2:0
Битовая глубина : 8 бит
Тип развёртки : Прогрессивная
Метод сжатия : С потерями
Бит/(Пиксели*Кадры) : 0.113
Размер потока : 1,12 Гбайт (93%)
Язык : English
Дата кодирования : UTC 2015-06-04 03:53:20
Дата пометки : UTC 2015-06-04 03:53:20
Аудио
Идентификатор : 2
Формат : AAC
Формат/Информация : Advanced Audio Codec
Профиль формата : LC
Идентификатор кодека : mp4a-40-2
Продолжительность : 1 ч. 1 м.
Вид битрейта : Переменный
Битрейт : 192 Кбит/сек
Максимальный битрейт : 199 Кбит/сек
Каналы : 2 канала
Расположение каналов : Front: L R
Частота : 48,0 КГц
Частота кадров : 46,875 кадров/сек (1024 SPF)
Метод сжатия : С потерями
Размер потока : 84,2 Мбайт (7%)
Язык : English
Дата кодирования : UTC 2015-06-04 03:53:20
Дата пометки : UTC 2015-06-04 03:53:20
Прочее #1
Идентификатор : 3
Тип : Object description
Формат : System Core
Идентификатор кодека : mp4s-02
Продолжительность : 1 ч. 1 м.
Язык : English
Продолжительность оригинала : 40
Количество кадров оригинала : 1
Размер потока оригинала : 18
Размер потока : 1663020
Прочее #2
Идентификатор : 4
Тип : Scene description
Формат : System Core
Идентификатор кодека : mp4s-02
Продолжительность : 1 ч. 1 м.
Язык : English
Продолжительность оригинала : 40
Количество кадров оригинала : 1
Размер потока оригинала : 16
Размер потока : 1478240
   
Торрент: Зарегистрирован [04 апр 2018, 17:33] Скачать торрент Магнет ссылка
Скачать торрент
[ Размер 12.51 КБ / Просмотров 4 ]
Статус:
Проверен
 
.torrent скачан: 0 раз
Размер: 1.2 ГБ (1 292 706 782 байт)
   Стать Автором раздачи
 
 
Цитата
  • Похожие торренты
    Ответы
    Просмотры
    Последнее сообщение

Вернуться в Здоровье

Кто сейчас на конференции

Сейчас эту тему просматривают: нет зарегистрированных пользователей и гости: 1