Евгений Грин - Повышение потенции у мужчин [2016, Эзотерика, Мужское здоровье, CamRip, rus]

 Статистика раздачи 
Размер: 804.31 МБ   |  Зарегистрирован: 04 апр 2018, 17:28   |   .torrent скачан: 2 раз
Сидеров: 1  [ 0 байт/сек ]     Личеров: 8  [ 0 байт/сек ]  
  
Аватара пользователя
 
Раздал: 25.11 ГБ
Скачал: 416.25 ГБ
Ратио: 0.140
Сообщения: 176794
Стаж: 7 лет 9 дней

Евгений Грин - Повышение потенции у мужчин
Страна: Россия
Год выпуска: 2016
Тематика: Эзотерика, потенция, мужское здоровье
Продолжительность: 01:22:06
Перевод: Не требуется
Язык: Русский
Описание: МЫ с тобой поговорим про повышение потенции у мужчин, все что я объясню, если ты применишь всю информацию, которую я дал, я тебе гарантирую, в рамках двух недель у тебя существенно улучшится потенция. Причем даже независимо от того, в каком ты возрасте, т.е есть много деталек и нюансов, которые существенного способны повысить потенцию мужчины.
- Потенция мужчины, как работает эрекция
- Как повысить потенцию: питание, лобково-копчиковая мышца, контроль лобково-копчиковой мышцы, упражнения
- Ошибки при тренировке лобково-копчиковой мышцы
- Как тренировать лобково-копчиковую мышцу
- Как повысить потенцию на свидании
- Если пропала эрекция во время близости
- Утренняя эрекция: защита организма
- Сохранение спермы для потенции
- Половая энергия: отключение энерговампиров, набор энергии
- Оргазм без эякуляции
- Простата у мужчин, лечение простаты упражнениями, как не заработать простатит, профилактика простатита
- Как проверяется мужское здоровье
- Как вернуть эрекцию без таблеток
- Почему болит левое яичко, как убрать боль, сказки про варикоцеле левого яичка от врачей
Качество видео: CamRip
Формат видео: MP4
Видео: Advanced Video Codec, 1280x720, 1241 Кбит/сек, 25,000 кадров/сек
Аудио: Advanced Audio Codec, 44,1 КГц, 126 Кбит/сек, 2 канала
Общее
Формат : MPEG-4
Профиль формата : Base Media / Version 2
Идентификатор кодека : mp42
Размер файла : 804 Мбайт
Продолжительность : 1 ч. 22 м.
Режим общего битрейта : Переменный
Общий поток : 1370 Кбит/сек
Дата кодирования : UTC 2016-08-23 14:01:59
Дата пометки : UTC 2016-08-23 14:01:59
Видео
Идентификатор : 1
Формат : AVC
Формат/Информация : Advanced Video Codec
Профиль формата : [email protected]
Параметр CABAC формата : Да
Параметр ReFrames формата : 3 кадра
Идентификатор кодека : avc1
Идентификатор кодека/Информация : Advanced Video Coding
Продолжительность : 1 ч. 22 м.
Вид битрейта : Переменный
Битрейт : 1241 Кбит/сек
Ширина : 1280 пикселей
Высота : 720 пикселей
Соотношение сторон : 16:9
Режим частоты кадров : Постоянный
Частота кадров : 25,000 кадров/сек
Стандарт вещания : PAL
Цветовое пространство : YUV
Субдискретизация насыщенности : 4:2:0
Битовая глубина : 8 бит
Тип развёртки : Прогрессивная
Бит/(Пиксели*Кадры) : 0.054
Размер потока : 729 Мбайт (91%)
Язык : English
Дата кодирования : UTC 2016-08-23 14:02:00
Дата пометки : UTC 2016-08-23 14:02:00
Аудио
Идентификатор : 2
Формат : AAC
Формат/Информация : Advanced Audio Codec
Профиль формата : LC
Идентификатор кодека : 40
Продолжительность : 1 ч. 22 м.
Вид битрейта : Переменный
Битрейт : 126 Кбит/сек
Максимальный битрейт : 151 Кбит/сек
Каналы : 2 канала
Расположение каналов : Front: L R
Частота : 44,1 КГц
Метод сжатия : С потерями
Размер потока : 73,8 Мбайт (9%)
Язык : English
Дата кодирования : UTC 2016-08-23 14:02:00
Дата пометки : UTC 2016-08-23 14:02:00
   
Торрент: Зарегистрирован [04 апр 2018, 17:28] Скачать торрент Магнет ссылка
Скачать торрент
[ Размер 16.22 КБ / Просмотров 9 ]
Статус:
Проверен
 
.torrent скачан: 2 раз
Размер: 804.31 МБ (843 380 157 байт)
   Стать Автором раздачи
 
 
Цитата
  • Похожие торренты
    Ответы
    Просмотры
    Последнее сообщение

Вернуться в Здоровье

Кто сейчас на конференции

Сейчас эту тему просматривают: нет зарегистрированных пользователей и гости: 1