[Кардиология/Артериальная гипертензия]Рефрактерная артериальная гипертония.Причины и пути преодоления. Чихладзе Н.М.,д.м.н., ФГБУ РКНПК РФ [2012, видеоматериал для врачей, HDTVRip]

 Статистика раздачи 
Размер: 210.22 МБ   |  Зарегистрирован: 04 апр 2018, 15:10   |   .torrent скачан: 0 раз
Сидеров: 9  [ 0 байт/сек ]     Личеров: 7  [ 0 байт/сек ]  
  
Аватара пользователя
 
Раздал: 25.11 ГБ
Скачал: 416.25 ГБ
Ратио: 0.140
Сообщения: 176863
Стаж: 7 лет 1 месяц 2 дня

Рефрактерная артериальная гипертония.Причины и пути преодоления. Чихладзе Н.М.,д.м.н., д.м.н., ведущий научный сотрудник отдела системных гипертензий Института клинической кардиологии им. А.Л. Мясникова ФГБУ РКНПК РФ
Также рекомендуем Ренальная денервация ( инструментальный метод лечения эссенциальной артериальной гипертензии рефрактерной к медикаментозной терапии )– первый опыт в России. [2012, видеоматериал для врачей, HDTVRip]
Страна: Россия
Год выпуска: 2012
Продолжительность: 00:31:45
Перевод: Не требуется
Русские субтитры: нет
Описание:
Доклад был представлен на VII Национальном Конгрессе терапевтов в рамках симпозиума «Рефрактерная артериальная гипертония: причины и пути преодоления».
Тема доклада: «Рефрактерное течение артериальной гипертонии: важно ли диагностировать вторичные формы АГ?»
Докладчик: Чихладзе Новелла Михайловна – д.м.н., ведущий научный сотрудник отдела системных гипертензий Института клинической кардиологии им. А.Л. Мясникова ФГБУ РКНПК РФ
Доп. информация: В рамках темы резистентной артериальной гипертензии также рекомендуются следующие видеоматериалы :
Ренальная денервация ( инструментальный метод лечения эссенциальной АГ рефрактерной к медикаментозной терапии )– первый опыт в России. [2012, видеоматериал для врачей, HDTVRip]
Синдром обструктивного апноэ сна– взгляд кардиолога. [2012, видеоматериал для врачей, HDTVRip]
Качество видео: HDTVRip
Формат видео: MP4
Видео: AVC,764 Кбит/сек, 1280 Х 720 px,16:9,25,000 кадров/сек
Аудио: AAC,157 Кбит/сек,2 канала,48,0 КГц
Общее
Полное имя : C:\Users\User\Desktop\Рефрактерная артериальная гипертония.Причины и пути преодоления.Чихладзе Н.М.,д.м.н., ФГБУ РКНПК им. Мясникова .2012.mp4
Формат : MPEG-4
Профиль формата : Base Media / Version 2
Идентификатор кодека : mp42
Размер файла : 210 Мбайт
Продолжительность : 31 м.
Режим общего битрейта : Переменный
Общий поток : 925 Кбит/сек
Дата кодирования : UTC 2013-01-20 07:31:21
Дата пометки : UTC 2013-01-20 07:31:21
Видео
Идентификатор : 1
Формат : AVC
Формат/Информация : Advanced Video Codec
Профиль формата : [email protected]
Параметр CABAC формата : Да
Параметр ReFrames формата : 4 кадра
Идентификатор кодека : avc1
Идентификатор кодека/Информация : Advanced Video Coding
Продолжительность : 31 м.
Битрейт : 764 Кбит/сек
Ширина : 1280 пикселей
Высота : 720 пикселей
Соотношение сторон : 16:9
Режим частоты кадров : Постоянный
Частота кадров : 25,000 кадров/сек
Цветовое пространство : YUV
Субдискретизация насыщенности : 4:2:0
Битовая глубина : 8 бит
Тип развёртки : Прогрессивная
Бит/(Пиксели*Кадры) : 0.033
Размер потока : 174 Мбайт (83%)
Библиотека кодирования : x264 core 129 r2245 bc13772
Настройки программы : cabac=1 / ref=3 / deblock=1:0:0 / analyse=0x3:0x113 / me=hex / subme=7 / psy=1 / psy_rd=1.00:0.00 / mixed_ref=1 / me_range=16 / chroma_me=1 / trellis=1 / 8x8dct=1 / cqm=0 / deadzone=21,11 / fast_pskip=1 / chroma_qp_offset=-2 / threads=12 / lookahead_threads=2 / sliced_threads=0 / nr=0 / decimate=1 / interlaced=0 / bluray_compat=0 / constrained_intra=0 / bframes=3 / b_pyramid=2 / b_adapt=1 / b_bias=0 / direct=1 / weightb=1 / open_gop=0 / weightp=2 / keyint=75 / keyint_min=25 / scenecut=40 / intra_refresh=0 / rc_lookahead=40 / rc=2pass / mbtree=1 / bitrate=764 / ratetol=1.0 / qcomp=0.60 / qpmin=5 / qpmax=69 / qpstep=4 / cplxblur=20.0 / qblur=0.5 / vbv_maxrate=3750 / vbv_bufsize=12500 / nal_hrd=none / ip_ratio=1.40 / aq=1:1.00
Дата кодирования : UTC 2013-01-20 07:31:21
Дата пометки : UTC 2013-01-20 07:31:21
Аудио
Идентификатор : 2
Формат : AAC
Формат/Информация : Advanced Audio Codec
Профиль формата : LC
Идентификатор кодека : 40
Продолжительность : 31 м.
Продолжительность оригинала : 31 м.
Вид битрейта : Переменный
Битрейт : 157 Кбит/сек
Каналы : 2 канала
Расположение каналов : Front: L R
Частота : 48,0 КГц
Метод сжатия : С потерями
Задержка видео : 37 мс.
Размер потока : 35,8 Мбайт (17%)
Размер потока оригинала : 35,8 Мбайт (17%)
Дата кодирования : UTC 2013-01-20 07:31:21
Дата пометки : UTC 2013-01-20 07:31:21
. Вы всегда будете в курсе новых раздач!
Релиз группы
Вам понравилась раздача? Напишите, пожайлуста что-нибудь в этом топике. Это продлит раздаче жизнь. Кнопка "Спасибо" в реальности этого не делает.
   
Торрент: Зарегистрирован [04 апр 2018, 15:10] Скачать торрент Магнет ссылка
Скачать торрент
[ Размер 17.05 КБ / Просмотров 5 ]
Статус:
Проверен
 
.torrent скачан: 0 раз
Размер: 210.22 МБ (220 431 418 байт)
   Стать Автором раздачи
 
 
Цитата
  • Похожие торренты
    Ответы
    Просмотры
    Последнее сообщение

Вернуться в Документальные фильмы и телепередачи по медицине

Кто сейчас на конференции

Сейчас эту тему просматривают: нет зарегистрированных пользователей и гости: 1