Takunomi. | Алкогольные посиделки [2018, TV, 1 из 12] HDTVRip 720p raw

 Статистика раздачи 
Размер: 138.15 МБ   |  Зарегистрирован: 13 янв 2018, 21:49   |   .torrent скачан: 0 раз
Сидеров: 0  [ 0 байт/сек ]     Личеров: 1  [ 0 байт/сек ]  
  
Аватара пользователя
 
Раздал: 0 байт
Скачал: 0 байт
Ратио: Inf.
Сообщения: 158985
Стаж: 7 лет 5 месяцев 27 дней
Откуда: Rossiya

たくのみ。 | Takunomi. | Алкогольные посиделки

Тип: TV
Жанр: комедия, повседневность
Продолжительность: 12 эп. по 12 мин.
Количество серий: 1 из 12

Дата выпуска: c 12.01.2018
Производство: Студия Production IMS / プロダクションアイムズ
Автор оригинала: Хино Харуто
Режиссер: Кобаяси Томоки

Ссылки: World-Art ANN AniDB MyAnimeList Сетка вещания

Описание:
Двадцатилетняя Мичиру Амацуки переезжает в Токио ради трудоустройства. Вселившись в женское общежитие, она находит трёх новых подруг: консультанта в магазине одежды, организатора свадеб и студентку. Это история об их жизнях, а также их беседах во время распития спиртного.
В данном произведении демонстрируются сцены с употреблением спиртных напитков. Чрезмерное употребление алкоголя вредит вашему здоровью. Употребление спиртных напитков несовершеннолетними запрещено законодательством.

Язык озвучки: Японский
Субтитры: Русские
Перевод: RizenTeam

Качество видео: HDTVRip
Видео: AVC ([email protected]), 1280x720 (16:9), ~23.976 fps, ~1377 kbps
Аудио: AAC LC, 2 ch, 48 kHz, ~192 kbps
Скриншоты:


1
Код: Выделить всё
General
Complete name               : Takunomi\[Ohys-Raws] Takunomi. - 01 (TBS 1280x720 x264 AAC).mp4
Format                      : MPEG-4
Format profile              : Base Media
Codec ID                    : isom (isom/avc1)
File size                   : 138 MiB
Duration                    : 12 min 15 s
Overall bit rate mode       : Variable
Overall bit rate            : 1 576 kb/s
Encoded date                : UTC 2018-01-11 18:35:58
Tagged date                 : UTC 2018-01-11 18:35:58

Video
ID                          : 1
Format                      : AVC
Format/Info                 : Advanced Video Codec
Format profile              : [url=http://nnm-club.name/mailto:[email protected]][email protected][/url]
Format settings             : CABAC / 4 Ref Frames
Format settings, CABAC      : Yes
Format settings, ReFrames   : 4 frames
Codec ID                    : avc1
Codec ID/Info               : Advanced Video Coding
Duration                    : 12 min 14 s
Bit rate                    : 1 377 kb/s
Maximum bit rate            : 7 169 kb/s
Width                       : 1 280 pixels
Height                      : 720 pixels
Display aspect ratio        : 16:9
Frame rate mode             : Constant
Frame rate                  : 23.976 (24000/1001) FPS
Color space                 : YUV
Chroma subsampling          : 4:2:0
Bit depth                   : 8 bits
Scan type                   : Progressive
Bits/(Pixel*Frame)          : 0.062
Stream size                 : 121 MiB (87%)
Writing library             : x264 core 155 r2867+74 66b5600 t_mod_Custom_2 [[email protected] X86_64]
Encoding settings           : cabac=1 / ref=3 / deblock=1:0:0 / analyse=0x1:0x111 / me=hex / subme=7 / psy=1 / fade_compensate=0.00 / psy_rd=1.00:0.00 / mixed_ref=1 / me_range=16 / chroma_me=1 / trellis=1 / 8x8dct=0 / cqm=0 / deadzone=21,11 / fast_pskip=1 / chroma_qp_offset=-2 / threads=18 / lookahead_threads=3 / sliced_threads=0 / nr=0 / decimate=1 / interlaced=0 / bluray_compat=0 / constrained_intra=0 / fgo=0 / bframes=3 / b_pyramid=2 / b_adapt=1 / b_bias=0 / direct=1 / weightb=1 / open_gop=0 / weightp=2 / keyint=240 / keyint_min=1 / scenecut=40 / intra_refresh=0 / rc_lookahead=40 / rc=crf / mbtree=1 / crf=20.0000 / qcomp=0.60 / qpmin=0:0:0 / qpmax=69:69:69 / qpstep=4 / ip_ratio=1.40 / aq=1:1.50 / aq-sensitivity=10.00 / aq-factor=1.00:1.00:1.00 / aq2=0 / aq3=0
Encoded date                : UTC 2018-01-11 18:35:58
Tagged date                 : UTC 2018-01-11 18:35:59
Color range                 : Limited
Color primaries             : BT.709
Transfer characteristics    : BT.709
Matrix coefficients         : BT.709

Audio
ID                          : 2
Format                      : AAC
Format/Info                 : Advanced Audio Codec
Format profile              : LC
Codec ID                    : mp4a-40-2
Duration                    : 12 min 15 s
Bit rate mode               : Variable
Bit rate                    : 192 kb/s
Maximum bit rate            : 244 kb/s
Channel(s)                  : 2 channels
Channel positions           : Front: L R
Sampling rate               : 48.0 kHz
Frame rate                  : 46.875 FPS (1024 SPF)
Compression mode            : Lossy
Stream size                 : 17.1 MiB (12%)
Language                    : Japanese
Encoded date                : UTC 2018-01-11 18:30:21
Tagged date                 : UTC 2018-01-11 18:35:59
Время раздачи: 24/7 (круглосуточно) (до появления первых 3-5 скачавших)
   
Торрент: Зарегистрирован [13 янв 2018, 21:49] Скачать торрент Магнет ссылка
Скачать торрент
[ Размер 11.85 КБ / Просмотров 7 ]
Статус:
Проверен
 
.torrent скачан: 0 раз
Размер: 138.15 МБ (144 860 667 байт)
   Стать Автором раздачи
 
 
Цитата

Вернуться в Аниме, Японские мультфильмы

Кто сейчас на конференции

Сейчас эту тему просматривают: нет зарегистрированных пользователей и гости: 1