Дикие Гавайи. Тайны морских глубин / Wild Hawaii. Secrets of the Deep (Карен Гринфилд) [2013, Документальный, BDRip 720p]

 Статистика раздачи 
Размер: 1.91 ГБ   |  Зарегистрирован: 13 янв 2018, 22:47   |   .torrent скачан: 0 раз
Сидеров: 0  [ 0 байт/сек ]     Личеров: 0  [ 0 байт/сек ]  
  
Аватара пользователя
Главный редактор
Главный редактор
Я на сайте
Автор темы
Раздал: 10.1 ТБ
Скачал: 1.78 ТБ
Ратио: 6.104
Сообщения: 22950
Стаж: 7 лет 2 месяца 26 дней
Откуда: Санкт-Петербург

Дикие Гавайи. Тайны морских глубин / Wild Hawaii. Secrets of the Deep
Год выпуска: 2013
Страна: США
Студия: Pangolin Pictures, National Geographic Cannel
Жанр: Документальный
Продолжительность: 00:44:00
Перевод: Профессиональный (дублированный)
Русские субтитры: нет
Режиссер: Карен Гринфилд
Описание: Гавайи - рай на земле, и не только на суше. Настоящий эдемский сад кроется под волнами. Там, где заканчивается берег, начинается повествование о диких Гавайах. Одна из тайн этих островов надежно скрыта под водой. Может показаться, что этот рай предназначен для ограниченного числа избранных, однако эти воды открыты для самых разнообразных существ. Гавайи притягивают жизнь на свои мелководья, на отмели и в глубины. Чарующая красота этого рая земного завораживает своим разнообразием.

Сэмпл
Тип релиза: BDRip 720p
Контейнер: MKV
Видео: MPEG-4 AVC, 6050 Кбит/с, 1280x720, 25 fps
Аудио: AC3, 2 ch, 48.0 KHz, 192 Кбит/с
Код: Выделить всё
General
Unique ID                      : 171334829181061599949689247015568770649 (0x80E5E347193AE52FED9B8A76588D8659)
Complete name                  : D:\Видео\Флора и фауна\Wild Hawaii\Wild Hawaii. Secrets of the Deep.2013.mkv
Format                         : Matroska
Format version                 : Version 4 / Version 2
File size                      : 1.91 GiB
Duration                       : 44mn 0s
Overall bit rate               : 6 210 Kbps
Encoded date                   : UTC 2015-04-19 17:56:28
Writing application            : Lavf56.30.100
Writing library                : Lavf56.30.100
Video
ID                             : 1
Format                         : AVC
Format/Info                    : Advanced Video Codec
Format profile                 : [email protected]
Format settings, CABAC         : Yes
Format settings, ReFrames      : 7 frames
Codec ID                       : V_MPEG4/ISO/AVC
Duration                       : 44mn 0s
Bit rate                       : 6 050 Kbps
Width                          : 1 280 pixels
Height                         : 720 pixels
Display aspect ratio           : 16:9
Frame rate mode                : Constant
Frame rate                     : 25.000 fps
Color space                    : YUV
Chroma subsampling             : 4:2:0
Bit depth                      : 8 bits
Scan type                      : Progressive
Bits/(Pixel*Frame)             : 0.263
Stream size                    : 1.81 GiB (95%)
Writing library                : x264 core 146 r2538
Encoding settings              : cabac=1 / ref=7 / deblock=1:0:0 / analyse=0x3:0x113 / me=umh / subme=9 / psy=1 / psy_rd=1.00:0.00 / mixed_ref=0 / me_range=24 / chroma_me=1 / trellis=1 / 8x8dct=1 / cqm=0 / deadzone=21,11 / fast_pskip=1 / chroma_qp_offset=-2 / threads=6 / lookahead_threads=1 / sliced_threads=0 / nr=0 / decimate=1 / interlaced=0 / bluray_compat=0 / constrained_intra=0 / bframes=7 / b_pyramid=2 / b_adapt=2 / b_bias=0 / direct=3 / weightb=0 / open_gop=0 / weightp=2 / keyint=250 / keyint_min=25 / scenecut=40 / intra_refresh=0 / rc_lookahead=40 / rc=2pass / mbtree=1 / bitrate=6050 / ratetol=1.0 / qcomp=0.60 / qpmin=10 / qpmax=69 / qpstep=4 / cplxblur=20.0 / qblur=0.5 / vbv_maxrate=6050 / vbv_bufsize=24000 / nal_hrd=none / filler=0 / ip_ratio=1.40 / aq=2:1.00
Default                        : Yes
Forced                         : No
Audio
ID                             : 2
Format                         : AC-3
Format/Info                    : Audio Coding 3
Mode extension                 : CM (complete main)
Format settings, Endianness    : Big
Codec ID                       : A_AC3
Duration                       : 44mn 0s
Bit rate mode                  : Constant
Bit rate                       : 192 Kbps
Channel(s)                     : 2 channels
Channel positions              : Front: L R
Sampling rate                  : 48.0 KHz
Bit depth                      : 16 bits
Compression mode               : Lossy
Delay relative to video        : 995ms
Stream size                    : 60.4 MiB (3%)
Writing library                : Lavc56.34.100 ac3_fixed
Language                       : Russian
Default                        : Yes
Forced                         : No
Код: Выделить всё
PLATFORM
------------------------------
OS Code: Microsoft Windows NT 6.1.7601 Service Pack 1
OS Name: Windows 7 Ultimate Service Pack 1 (x64)
Framework: 2.0.50727.5477 (v4.0)
AviSynth: AviSynth 2.60, build:Feb 20 2015 [03:16:45]
CPU Info: Intel(R) Core(TM) i3-3240 CPU @ 3.40GHz (~3502), 4 core(s)
RAM Total: 8138Mb
Language: RUS (1251, ".")
SystemDrive: C:
XviD4PSP
------------------------------
Version: 5.10.346.0
Created: 12.02.2015 13:46:56
AppPath: C:\Program Files (x86)\XviD4PSP 5
TempPath: D:\Temp
FILES
------------------------------
00000.m2ts >
Дикие Гавайи_BDRip.mkv
TASK
------------------------------
Format: MKV
Duration: 00:44:00:080 (66002)
VideoDecoder: DirectShowSource
Resolution: 1920x1080 > 1280x720
Aspect: 1.7778
VCodecPreset: Custom x264 CLI
VEncodingMode: Quality
VideoCodec: h264 > x264
VideoBitrate: 31881 > Q18.0
Framerate: 25.000
SourceType: PROGRESSIVE
FieldOrder: UNKNOWN
AEncodingPreset: Custom
AudioCodec: AC3
AudioBitrate: 192
Samplerate: 48000
Channels: 2
Normalize: 100%
Accurate: 10%
Gain: 4.092
Delay: 1000 > 1000
SCRIPT
------------------------------
Import("C:\Program Files (x86)\XviD4PSP 5\dlls\AviSynth\functions\AudioFunctions.avs")
Import("C:\Program Files (x86)\XviD4PSP 5\dlls\AviSynth\functions\VideoFunctions.avs")
DirectShowSource("D:\Кодировка видео\BDMV\STREAM\00000.m2ts", fps=25.000, convertfps=true)
DelayAudio(1.000)
ConvertToYV12()
###[FILTERING]###
###[FILTERING]###
LanczosResize(1280, 720)
selectTotal1=framecount()/100
selectTotal2=selectTotal1*2
selectrangeevery(selectTotal2,50)
AmplifydB(4.092)
AUDIO ENCODING
------------------------------
Encoding audio to: D:\Temp\0006.ac3
AC3 192kbps 2ch 16bit 48000khz
aften.exe: -b 192 - "D:\Temp\0006.ac3"
VIDEO ENCODING
------------------------------
Encoding video to: D:\Temp\0006.264
x264 Q18.0 1280x720 25.000fps (66002 frames)
x264.exe: --crf 18.0 --preset slow --profile high --level 4.1 --ref 7 --aq-mode 2 --bframes 7 --trellis 2 --subme 9 --rc-lookahead 40 --min-keyint 24 --keyint 240 --vbv-bufsize 14000 --vbv-maxrate 14000 --partitions p8x8,b8x8,i4x4,i8x8 --sar 1:1 --output "D:\Temp\0006.264" "D:\Temp\0006.avs"
avs [info]: 1280x720p 1:1 @ 25/1 fps (cfr)
x264 [info]: using SAR=1/1
x264 [info]: using cpu capabilities: MMX2 SSE2Fast SSSE3 SSE4.2 AVX
x264 [info]: profile High, level 4.1
x264 [info]: frame I:47    Avg QP:12.04  size:215557
x264 [info]: frame P:552   Avg QP:19.26  size: 46726
x264 [info]: frame B:1903  Avg QP:21.29  size: 21761
x264 [info]: consecutive B-frames:  2.6%  3.4% 10.2% 26.2% 23.4% 15.3%  4.8% 14.1%
x264 [info]: mb I  I16..4:  6.0% 68.1% 25.9%
x264 [info]: mb P  I16..4:  3.5% 17.7%  2.4%  P16..4: 32.8% 15.6%  7.4%  0.0%  0.0%    skip:20.7%
x264 [info]: mb B  I16..4:  0.3%  2.4%  0.5%  B16..8: 27.8%  9.3%  2.6%  direct:12.5%  skip:44.6%  L0:41.4% L1:43.2% BI:15.4%
x264 [info]: 8x8 transform intra:73.9% inter:71.8%
x264 [info]: direct mvs  spatial:99.8% temporal:0.2%
x264 [info]: coded y,uvDC,uvAC intra: 84.1% 81.7% 48.2% inter: 32.6% 34.8% 3.4%
x264 [info]: i16 v,h,dc,p: 21% 29% 10% 40%
x264 [info]: i8 v,h,dc,ddl,ddr,vr,hd,vl,hu:  5% 16%  6%  9% 13% 10% 16%  9% 17%
x264 [info]: i4 v,h,dc,ddl,ddr,vr,hd,vl,hu:  5% 18%  4%  8% 12%  9% 16%  9% 20%
x264 [info]: i8c dc,h,v,p: 37% 34% 13% 16%
x264 [info]: Weighted P-Frames: Y:12.7% UV:8.7%
x264 [info]: ref P L0: 46.0% 14.0% 18.4%  7.9%  5.2%  4.2%  3.4%  0.7%  0.1%
x264 [info]: ref B L0: 79.3% 10.7%  5.6%  2.4%  1.3%  0.6%
x264 [info]: ref B L1: 94.5%  5.5%
x264 [info]: kb/s:6181.93
x264 [total]: encoded 2502 frames, 4.99 fps, 6181.93 kb/s
MUXING
------------------------------
Video file: D:\Temp\0006.264
Audio file: D:\Temp\0006.ac3
Muxing to: D:\Кодировка видео\ Дикие Гавайи_BDRip.mkv
mkvmerge.exe: -o "D:\Кодировка видео\ Дикие Гавайи_BDRip.mkv" --default-duration 0:25.000fps -d 0 -A -S -B -T -M --no-chapters --no-global-tags "D:\Temp\0006.264" -a 0 -D -S -B -T -M --no-chapters --no-global-tags "D:\Temp\0006.ac3" --disable-track-statistics-tags --engage no_cue_duration --engage no_cue_relative_position --output-charset UTF-8
TIME
------------------------------
Общее время кодирования: 9 min 23 sec
Файл получился на: 76.07 mb
   
Торрент: Зарегистрирован [13 янв 2018, 22:47] Скачать торрент Магнет ссылка
Скачать торрент
[ Размер 19.56 КБ / Просмотров 0 ]
Статус:
Проверен
 
.torrent скачан: 0 раз
Размер: 1.91 ГБ (2 049 374 154 байт)
   
 
 
Цитата
  • Похожие торренты
    Ответы
    Просмотры
    Последнее сообщение

Вернуться в National Geographic

Кто сейчас на конференции

Сейчас эту тему просматривают: нет зарегистрированных пользователей и гости: 1