(Score) Ложное искушение / The Good Shepherd (by Marcelo Zarvos & Bruce Fowler & VA) - 2007 (2006), FLAC (tracks+.cue), lossless

 Статистика раздачи 
Размер: 370.28 МБ   |  Зарегистрирован: 02 июн 2012, 19:56   |   .torrent скачан: 1 раз
Сидеров: 4  [ 0 байт/сек ]     Личеров: 1  [ 0 байт/сек ]  
  
Аватара пользователя
Администратор
Администратор
Автор темы
Раздал: 24.47 ТБ
Скачал: 388.83 ГБ
Ратио: 145.334
Сообщения: 5369
Стаж: 7 лет 1 месяц 9 дней
Откуда: Lithuania

Ложное искушение / The Good Shepherd


Оригинальное название: Ложное искушение / The Good Shepherd
Страна: USA
Производитель Диска - Лейбл: Varese Sarabande
Жанр: Score
Дата выхода: 2007
Формат аудио: FLAC
Битрэйт: lossless
Тип рипа: tracks+.cue
Продолжительность: 1:12:07
01. Edward (Composed by Marcelo Zarvos) (2:38)
02. Bay of Pigs (Composed by Bruce Fowler) (2:49)
03. Edward's Secret (Composed by Marcelo Zarvos) (2:35)
04. The Whiffenpoof Song (Baa! Baa! Baa!) (Performed by Rudy Vallee) (1:39)
05. Frederick's Lure (Composed by Marcelo Zarvos) (1:26)
06. First Test (Composed by Bruce Fowler) (2:44)
07. Blue Skies (Performed by Irving Berlin) (2:33)
08. Edward & Laura Part 1 (Composed by Bruce Fowler) (2:06)
09. Embraceable You (Performed by George and Ira Gershwin) (3:43)
10. Tribeca Bounce (Performed by Vince Giordano and The Nighthawks Orchestra) (2:06)
11. Clover (Composed by Marcelo Zarvos) (2:32)
12. No Rain a Fallin' (Performed by Vince Giordano and The Nighthawks Orchestra) (2:15)
13. CIA (Composed by Bruce Fowler) (2:17)
14. Spy Lesson (Composed by Marcelo Zarvos) (2:53)
15. Day of the Locusts (Composed by Marcelo Zarvos) (4:41)
16. Christmas Eve (Composed by Marcelo Zarvos) (2:51)
17. Spy Trade (Composed by Marcelo Zarvos) (2:33)
18. Welcome Gift (Composed by Bruce Fowler) (1:35)
19. So In Love (Performed by Vince Giordano and The Nighthawks Orchestra) (1:46)
20. Edward & Laura Part 2 (Composed by Bruce Fowler) (2:17)
21. There is Nothin' Like A Dame (Performed by Richard Rodgers and Oscar Hammerstein II) (0:45)
22. The Interrogation (Composed by Marcelo Zarvos) (2:28)
23. The Violin (Composed by Marcelo Zarvos) (1:25)
24. Come Rain Or Come Shine (Performed by Ann Hampton Callaway) (3:32)
25. Miriam (Composed by Marcelo Zarvos) (4:19)
26. Ofrenda De Amor (Performed by St. Louis African Chorus) (2:24)
27. Silouans Song (Performed by Arvo Pдrt) (5:33)
28. H.M.S. Pinafore: Act 1: Hail! Men O'Wars Men ... I'm Called Little Buttercup (Performed by The D'Oyly Carte Opera Company) (1:43)

Дополнительное описание:
EAC extraction logfile from 22. July 2010, 19:48 for CD
Marcelo Zarvos - Bruce Fowler / The Good Shepherd
Used drive : TSSTcorpCDDVDW SH-S223C Adapter: 3 ID: 0
Read mode : Secure with NO C2, accurate stream, disable cache
Read offset correction : 697
Overread into Lead-In and Lead-Out : No
Used output format : C:\Program Files (x86)\Exact Audio Copy\flac.exe (User Defined Encoder)
320 kBit/s
Additional command line options : -5 -V -T "artist=%a" -T "title=%t" -T "album=%g" -T "date=%y" -T "tracknumber=%n" -T "genre=%m" -T "comment=%e" %s -o %d
Other options :
Fill up missing offset samples with silence : Yes
Delete leading and trailing silent blocks : No
Installed external ASPI interface
Track 1
Filename E:\what.cd\eac\Marcelo Zarvos - Bruce Fowler - 2006 -The Good Shepherd\01 - Edward.wav
Pre-gap length 0:00:02.00
Peak level 99.3 %
Track quality 100.0 %
Test CRC BBD04F22
Copy CRC BBD04F22
Copy OK
Track 2
Filename E:\what.cd\eac\Marcelo Zarvos - Bruce Fowler - 2006 -The Good Shepherd\02 - Bay of Pigs.wav
Pre-gap length 0:00:01.10
Peak level 99.7 %
Track quality 100.0 %
Test CRC 0373435B
Copy CRC 0373435B
Copy OK
Track 3
Filename E:\what.cd\eac\Marcelo Zarvos - Bruce Fowler - 2006 -The Good Shepherd\03 - Edward's Secret.wav
Pre-gap length 0:00:01.56
Peak level 98.7 %
Track quality 100.0 %
Test CRC E4F85F41
Copy CRC E4F85F41
Copy OK
Track 4
Filename E:\what.cd\eac\Marcelo Zarvos - Bruce Fowler - 2006 -The Good Shepherd\04 - The Whiffenpoof Song (Baa! Baa! Baa!).wav
Pre-gap length 0:00:02.33
Peak level 58.4 %
Track quality 100.0 %
Test CRC 3B90C550
Copy CRC 3B90C550
Copy OK
Track 5
Filename E:\what.cd\eac\Marcelo Zarvos - Bruce Fowler - 2006 -The Good Shepherd\05 - Frederick's Lure.wav
Pre-gap length 0:00:01.02
Peak level 90.4 %
Track quality 100.0 %
Test CRC F9772475
Copy CRC F9772475
Copy OK
Track 6
Filename E:\what.cd\eac\Marcelo Zarvos - Bruce Fowler - 2006 -The Good Shepherd\06 - First Test.wav
Pre-gap length 0:00:01.56
Peak level 99.2 %
Track quality 100.0 %
Test CRC 6A0AD226
Copy CRC 6A0AD226
Copy OK
Track 7
Filename E:\what.cd\eac\Marcelo Zarvos - Bruce Fowler - 2006 -The Good Shepherd\07 - Blue Skies.wav
Pre-gap length 0:00:02.33
Peak level 72.3 %
Track quality 100.0 %
Test CRC C5B06E2A
Copy CRC C5B06E2A
Copy OK
Track 8
Filename E:\what.cd\eac\Marcelo Zarvos - Bruce Fowler - 2006 -The Good Shepherd\08 - Edward & Laura.wav
Pre-gap length 0:00:01.56
Peak level 69.0 %
Track quality 99.9 %
Test CRC 5AAE5940
Copy CRC 5AAE5940
Copy OK
Track 9
Filename E:\what.cd\eac\Marcelo Zarvos - Bruce Fowler - 2006 -The Good Shepherd\09 - Embraceable You.wav
Pre-gap length 0:00:02.06
Peak level 94.3 %
Track quality 100.0 %
Test CRC 4C737198
Copy CRC 4C737198
Copy OK
Track 10
Filename E:\what.cd\eac\Marcelo Zarvos - Bruce Fowler - 2006 -The Good Shepherd\10 - Tribeca Bounce.wav
Pre-gap length 0:00:01.70
Peak level 98.9 %
Track quality 99.9 %
Test CRC 92962A37
Copy CRC 92962A37
Copy OK
Track 11
Filename E:\what.cd\eac\Marcelo Zarvos - Bruce Fowler - 2006 -The Good Shepherd\11 - Clover.wav
Pre-gap length 0:00:02.57
Peak level 78.6 %
Track quality 100.0 %
Test CRC 17B1BAE3
Copy CRC 17B1BAE3
Copy OK
Track 12
Filename E:\what.cd\eac\Marcelo Zarvos - Bruce Fowler - 2006 -The Good Shepherd\12 - No Rain a Fallin'.wav
Pre-gap length 0:00:02.06
Peak level 99.0 %
Track quality 99.9 %
Test CRC 337D4C7C
Copy CRC 337D4C7C
Copy OK
Track 13
Filename E:\what.cd\eac\Marcelo Zarvos - Bruce Fowler - 2006 -The Good Shepherd\13 - CIA.wav
Pre-gap length 0:00:02.57
Peak level 99.4 %
Track quality 100.0 %
Test CRC E668D261
Copy CRC E668D261
Copy OK
Track 14
Filename E:\what.cd\eac\Marcelo Zarvos - Bruce Fowler - 2006 -The Good Shepherd\14 - Spy Lesson.wav
Pre-gap length 0:00:01.57
Peak level 98.9 %
Track quality 100.0 %
Test CRC C2811A72
Copy CRC C2811A72
Copy OK
Track 15
Filename E:\what.cd\eac\Marcelo Zarvos - Bruce Fowler - 2006 -The Good Shepherd\15 - Day of the Locusts.wav
Pre-gap length 0:00:01.57
Peak level 99.2 %
Track quality 100.0 %
Test CRC 10E9BF39
Copy CRC 10E9BF39
Copy OK
Track 16
Filename E:\what.cd\eac\Marcelo Zarvos - Bruce Fowler - 2006 -The Good Shepherd\16 - Christmas Eve.wav
Pre-gap length 0:00:01.56
Peak level 92.0 %
Track quality 100.0 %
Test CRC 97BA636C
Copy CRC 97BA636C
Copy OK
Track 17
Filename E:\what.cd\eac\Marcelo Zarvos - Bruce Fowler - 2006 -The Good Shepherd\17 - Spy Trade.wav
Pre-gap length 0:00:01.57
Peak level 99.3 %
Track quality 100.0 %
Test CRC 34F02078
Copy CRC 34F02078
Copy OK
Track 18
Filename E:\what.cd\eac\Marcelo Zarvos - Bruce Fowler - 2006 -The Good Shepherd\18 - Welcome Gift.wav
Pre-gap length 0:00:01.56
Peak level 95.2 %
Track quality 100.0 %
Test CRC 7CA59225
Copy CRC 7CA59225
Copy OK
Track 19
Filename E:\what.cd\eac\Marcelo Zarvos - Bruce Fowler - 2006 -The Good Shepherd\19 - So In Love.wav
Pre-gap length 0:00:02.56
Peak level 85.5 %
Track quality 100.0 %
Test CRC EA737D49
Copy CRC EA737D49
Copy OK
Track 20
Filename E:\what.cd\eac\Marcelo Zarvos - Bruce Fowler - 2006 -The Good Shepherd\20 - Edward & Laura Part 2.wav
Pre-gap length 0:00:02.57
Peak level 84.3 %
Track quality 100.0 %
Test CRC DE93ED20
Copy CRC DE93ED20
Copy OK
Track 21
Filename E:\what.cd\eac\Marcelo Zarvos - Bruce Fowler - 2006 -The Good Shepherd\21 - There is Nothin' Like A Dame.wav
Pre-gap length 0:00:01.56
Peak level 92.4 %
Track quality 100.0 %
Test CRC B1329FF3
Copy CRC B1329FF3
Copy OK
Track 22
Filename E:\what.cd\eac\Marcelo Zarvos - Bruce Fowler - 2006 -The Good Shepherd\22 - The Interrogation.wav
Pre-gap length 0:00:02.06
Peak level 99.8 %
Track quality 100.0 %
Test CRC CD79C79A
Copy CRC CD79C79A
Copy OK
Track 23
Filename E:\what.cd\eac\Marcelo Zarvos - Bruce Fowler - 2006 -The Good Shepherd\23 - The Violin.wav
Peak level 85.4 %
Track quality 100.0 %
Test CRC 98F28BB3
Copy CRC 98F28BB3
Copy OK
Track 24
Filename E:\what.cd\eac\Marcelo Zarvos - Bruce Fowler - 2006 -The Good Shepherd\24 - Come Rain Or Come Shine.wav
Pre-gap length 0:00:02.57
Peak level 84.0 %
Track quality 100.0 %
Test CRC C93952AF
Copy CRC C93952AF
Copy OK
Track 25
Filename E:\what.cd\eac\Marcelo Zarvos - Bruce Fowler - 2006 -The Good Shepherd\25 - Miriam.wav
Pre-gap length 0:00:01.56
Peak level 98.7 %
Track quality 100.0 %
Test CRC 9CD9B410
Copy CRC 9CD9B410
Copy OK
Track 26
Filename E:\what.cd\eac\Marcelo Zarvos - Bruce Fowler - 2006 -The Good Shepherd\26 - Ofrenda De Amor.wav
Pre-gap length 0:00:02.57
Peak level 82.3 %
Track quality 99.9 %
Test CRC 3A9446F2
Copy CRC 3A9446F2
Copy OK
Track 27
Filename E:\what.cd\eac\Marcelo Zarvos - Bruce Fowler - 2006 -The Good Shepherd\27 - Silouans Song.wav
Pre-gap length 0:00:01.56
Peak level 99.1 %
Track quality 100.0 %
Test CRC A2B94B94
Copy CRC A2B94B94
Copy OK
Track 28
Filename E:\what.cd\eac\Marcelo Zarvos - Bruce Fowler - 2006 -The Good Shepherd\28 - H.M.S. Pinafore- Act 1- Hail! Men O'Wars Men ... I'm Called Little Buttercup.wav
Pre-gap length 0:00:02.57
Peak level 93.3 %
Track quality 100.0 %
Test CRC AF9540E4
Copy CRC AF9540E4
Copy OK
No errors occured
End of status report

REM GENRE Soundtrack
REM DATE 2006
REM DISCID BD10E71C
REM COMMENT "ExactAudioCopy v0.95b3"
PERFORMER "Marcelo Zarvos - Bruce Fowler"
TITLE "The Good Shepherd"
FILE "Marcelo Zarvos - Bruce Fowler - 2006 -The Good Shepherd\01 - Edward.wav" WAVE
TRACK 01 AUDIO
TITLE "Edward"
PERFORMER "Marcelo Zarvos - Bruce Fowler"
INDEX 01 00:00:00
TRACK 02 AUDIO
TITLE "Bay of Pigs"
PERFORMER "Marcelo Zarvos - Bruce Fowler"
INDEX 00 02:37:17
FILE "Marcelo Zarvos - Bruce Fowler - 2006 -The Good Shepherd\02 - Bay of Pigs.wav" WAVE
INDEX 01 00:00:00
TRACK 03 AUDIO
TITLE "Edward's Secret"
PERFORMER "Marcelo Zarvos - Bruce Fowler"
INDEX 00 02:47:05
FILE "Marcelo Zarvos - Bruce Fowler - 2006 -The Good Shepherd\03 - Edward's Secret.wav" WAVE
INDEX 01 00:00:00
TRACK 04 AUDIO
TITLE "The Whiffenpoof Song (Baa! Baa! Baa!)"
PERFORMER "Marcelo Zarvos - Bruce Fowler"
INDEX 00 02:32:60
FILE "Marcelo Zarvos - Bruce Fowler - 2006 -The Good Shepherd\04 - The Whiffenpoof Song (Baa! Baa! Baa!).wav" WAVE
INDEX 01 00:00:00
TRACK 05 AUDIO
TITLE "Frederick's Lure"
PERFORMER "Marcelo Zarvos - Bruce Fowler"
INDEX 00 01:38:13
FILE "Marcelo Zarvos - Bruce Fowler - 2006 -The Good Shepherd\05 - Frederick's Lure.wav" WAVE
INDEX 01 00:00:00
TRACK 06 AUDIO
TITLE "First Test"
PERFORMER "Marcelo Zarvos - Bruce Fowler"
INDEX 00 01:24:23
FILE "Marcelo Zarvos - Bruce Fowler - 2006 -The Good Shepherd\06 - First Test.wav" WAVE
INDEX 01 00:00:00
TRACK 07 AUDIO
TITLE "Blue Skies"
PERFORMER "Marcelo Zarvos - Bruce Fowler"
INDEX 00 02:41:20
FILE "Marcelo Zarvos - Bruce Fowler - 2006 -The Good Shepherd\07 - Blue Skies.wav" WAVE
INDEX 01 00:00:00
TRACK 08 AUDIO
TITLE "Edward & Laura"
PERFORMER "Marcelo Zarvos - Bruce Fowler"
INDEX 00 02:31:03
FILE "Marcelo Zarvos - Bruce Fowler - 2006 -The Good Shepherd\08 - Edward & Laura.wav" WAVE
INDEX 01 00:00:00
TRACK 09 AUDIO
TITLE "Embraceable You "
PERFORMER "Marcelo Zarvos - Bruce Fowler"
INDEX 00 02:03:33
FILE "Marcelo Zarvos - Bruce Fowler - 2006 -The Good Shepherd\09 - Embraceable You.wav" WAVE
INDEX 01 00:00:00
TRACK 10 AUDIO
TITLE "Tribeca Bounce"
PERFORMER "Marcelo Zarvos - Bruce Fowler"
INDEX 00 03:41:37
FILE "Marcelo Zarvos - Bruce Fowler - 2006 -The Good Shepherd\10 - Tribeca Bounce.wav" WAVE
INDEX 01 00:00:00
TRACK 11 AUDIO
TITLE "Clover"
PERFORMER "Marcelo Zarvos - Bruce Fowler"
INDEX 00 02:03:22
FILE "Marcelo Zarvos - Bruce Fowler - 2006 -The Good Shepherd\11 - Clover.wav" WAVE
INDEX 01 00:00:00
TRACK 12 AUDIO
TITLE "No Rain a Fallin'"
PERFORMER "Marcelo Zarvos - Bruce Fowler"
INDEX 00 02:29:70
FILE "Marcelo Zarvos - Bruce Fowler - 2006 -The Good Shepherd\12 - No Rain a Fallin'.wav" WAVE
INDEX 01 00:00:00
TRACK 13 AUDIO
TITLE "CIA"
PERFORMER "Marcelo Zarvos - Bruce Fowler"
INDEX 00 02:12:67
FILE "Marcelo Zarvos - Bruce Fowler - 2006 -The Good Shepherd\13 - CIA.wav" WAVE
INDEX 01 00:00:00
TRACK 14 AUDIO
TITLE "Spy Lesson"
PERFORMER "Marcelo Zarvos - Bruce Fowler"
INDEX 00 02:15:47
FILE "Marcelo Zarvos - Bruce Fowler - 2006 -The Good Shepherd\14 - Spy Lesson.wav" WAVE
INDEX 01 00:00:00
TRACK 15 AUDIO
TITLE "Day of the Locusts"
PERFORMER "Marcelo Zarvos - Bruce Fowler"
INDEX 00 02:51:37
FILE "Marcelo Zarvos - Bruce Fowler - 2006 -The Good Shepherd\15 - Day of the Locusts.wav" WAVE
INDEX 01 00:00:00
TRACK 16 AUDIO
TITLE "Christmas Eve"
PERFORMER "Marcelo Zarvos - Bruce Fowler"
INDEX 00 04:39:20
FILE "Marcelo Zarvos - Bruce Fowler - 2006 -The Good Shepherd\16 - Christmas Eve.wav" WAVE
INDEX 01 00:00:00
TRACK 17 AUDIO
TITLE "Spy Trade"
PERFORMER "Marcelo Zarvos - Bruce Fowler"
INDEX 00 02:49:15
FILE "Marcelo Zarvos - Bruce Fowler - 2006 -The Good Shepherd\17 - Spy Trade.wav" WAVE
INDEX 01 00:00:00
TRACK 18 AUDIO
TITLE "Welcome Gift"
PERFORMER "Marcelo Zarvos - Bruce Fowler"
INDEX 00 02:31:30
FILE "Marcelo Zarvos - Bruce Fowler - 2006 -The Good Shepherd\18 - Welcome Gift.wav" WAVE
INDEX 01 00:00:00
TRACK 19 AUDIO
TITLE "So In Love"
PERFORMER "Marcelo Zarvos - Bruce Fowler"
INDEX 00 01:32:13
FILE "Marcelo Zarvos - Bruce Fowler - 2006 -The Good Shepherd\19 - So In Love.wav" WAVE
INDEX 01 00:00:00
TRACK 20 AUDIO
TITLE "Edward & Laura Part 2"
PERFORMER "Marcelo Zarvos - Bruce Fowler"
INDEX 00 01:43:65
FILE "Marcelo Zarvos - Bruce Fowler - 2006 -The Good Shepherd\20 - Edward & Laura Part 2.wav" WAVE
INDEX 01 00:00:00
TRACK 21 AUDIO
TITLE "There is Nothin' Like A Dame"
PERFORMER "Marcelo Zarvos - Bruce Fowler"
INDEX 00 02:15:00
FILE "Marcelo Zarvos - Bruce Fowler - 2006 -The Good Shepherd\21 - There is Nothin' Like A Dame.wav" WAVE
INDEX 01 00:00:00
TRACK 22 AUDIO
TITLE "The Interrogation"
PERFORMER "Marcelo Zarvos - Bruce Fowler"
INDEX 00 00:42:68
FILE "Marcelo Zarvos - Bruce Fowler - 2006 -The Good Shepherd\22 - The Interrogation.wav" WAVE
INDEX 01 00:00:00
FILE "Marcelo Zarvos - Bruce Fowler - 2006 -The Good Shepherd\23 - The Violin.wav" WAVE
TRACK 23 AUDIO
TITLE "The Violin"
PERFORMER "Marcelo Zarvos - Bruce Fowler"
INDEX 01 00:00:00
TRACK 24 AUDIO
TITLE "Come Rain Or Come Shine"
PERFORMER "Marcelo Zarvos - Bruce Fowler"
INDEX 00 01:22:67
FILE "Marcelo Zarvos - Bruce Fowler - 2006 -The Good Shepherd\24 - Come Rain Or Come Shine.wav" WAVE
INDEX 01 00:00:00
TRACK 25 AUDIO
TITLE "Miriam"
PERFORMER "Marcelo Zarvos - Bruce Fowler"
INDEX 00 03:30:10
FILE "Marcelo Zarvos - Bruce Fowler - 2006 -The Good Shepherd\25 - Miriam.wav" WAVE
INDEX 01 00:00:00
TRACK 26 AUDIO
TITLE "Ofrenda De Amor"
PERFORMER "Marcelo Zarvos - Bruce Fowler"
INDEX 00 04:16:00
FILE "Marcelo Zarvos - Bruce Fowler - 2006 -The Good Shepherd\26 - Ofrenda De Amor.wav" WAVE
INDEX 01 00:00:00
TRACK 27 AUDIO
TITLE "Silouans Song"
PERFORMER "Marcelo Zarvos - Bruce Fowler"
INDEX 00 02:22:65
FILE "Marcelo Zarvos - Bruce Fowler - 2006 -The Good Shepherd\27 - Silouans Song.wav" WAVE
INDEX 01 00:00:00
TRACK 28 AUDIO
TITLE "H.M.S. Pinafore: Act 1: Hail! Men O'Wars Men ... I'm Called Little Buttercup"
PERFORMER "Marcelo Zarvos - Bruce Fowler"
INDEX 00 05:30:20
FILE "Marcelo Zarvos - Bruce Fowler - 2006 -The Good Shepherd\28 - H.M.S. Pinafore- Act 1- Hail! Men O'Wars Men ... I'm Called Little Buttercup.wav" WAVE
INDEX 01 00:00:00






   
Торрент: Зарегистрирован [02 июн 2012, 19:56] Soundtracks Скачать торрент Магнет ссылка
Скачать торрент
[ Размер 16.83 КБ / Просмотров 206 ]
Статус:
Проверен
 
.torrent скачан: 1 раз
Размер: 370.28 МБ (388 263 837 байт)
   
 
 
Цитата

Вернуться в Soundtracks

Кто сейчас на конференции

Сейчас эту тему просматривают: нет зарегистрированных пользователей и гости: 1