[Рок, Панк-рок] Король и Шут - Дискография [1996-2012, flac (image+.cue)]

 Статистика раздачи 
Размер: 7.34 ГБ   |  Зарегистрирован: 29 май 2012, 20:01   |   .torrent скачан: 0 раз
Сидеров: 2  [ 0 байт/сек ]     Личеров: 356  [ 0 байт/сек ]  
  
Аватара пользователя
Администратор
Администратор
Автор темы
Раздал: 24.47 ТБ
Скачал: 388.83 ГБ
Ратио: 145.334
Сообщения: 5352
Стаж: 6 лет 4 месяца 20 дней
Откуда: Lithuania

Король и Шут - Дискография



Жанр: Рок, Панк-рок
Год выпуска: 1996 - 2012
Производитель: Россия
Аудио кодек: flac (image+.cue)
Продолжительность: 18:02:36

Дискография

Альбомы:

Продолжительность: 00:52:47

Треклист:
01. Смельчак и ветер (3:01)
02. Проказник скоморох (1:52)
03. Верная Жена (2:37)
04. Садовник (3:42)
05. Блуждающие тени (2:12)
06. Внезапная голова (2:25)
07. Шар голубой (автор неизвестен) (1:15)
08. Злодей и шапка (2:16)
09. От женщин кругом голова (1:31)
10. Рыбак (1:17)
11. Мотоцикл (2:37)
12. Холодное тело (2:41)
13. Дурак и молния (1:54)
14. Леший обиделся (2:53)
15. Два вора и монета (2:16)
16. Любовь и пропеллер (2:55)
17. Камнем по голове (2:38)
18. С тех пор как он ушел (2:17)
19. В доме суета (2:30)
20. Лесные разбойники (3:56)
21. Мария (4:03)
Музыка - М. Горшенёв (Горшок) кроме 7 (народная), 10,20 (А.Князев)
Стихи А. Князев (Князь)
Бас - А. Балунов (Балу)
Гитара - Я. Цвиркунов
Барабаны - А. Щиголев (Поручик)
Менеджмент - Дмитрий Журавлёв

Записано:
На Петербургской студии Грамзаписи
август-сентбрь 1996
переиздан в 1998 фирмой Бомба-Питер (CDMAN005-99)
Запись:
Михаил Кольчугин
Сведение:
Андрей Алякринский, Михаил Кольчугин
Фото:
АХАН - 1996

EAC extraction logfile from 9. April 2007, 11:16 for CD
Король и Шут / Камнем по Голове

Used drive : PIONEER DVD-RW DVR-111L Adapter: 0 ID: 0
Read mode : Secure with NO C2, accurate stream, disable cache
Read offset correction : 48
Overread into Lead-In and Lead-Out : No

Used output format : Internal WAV Routines
44.100 Hz; 16 Bit; Stereo

Other options :
Fill up missing offset samples with silence : Yes
Delete leading and trailing silent blocks : No
Installed external ASPI interface

Range status and errors
Selected range
Filename D:\Korol i Shut\Камнем по Голове\CDImage.wav

Peak level 96.6 %
Range quality 100.0 %
CRC 44C63447
Copy OK

No errors occured

End of status report



Продолжительность: 00:49:02

Треклист:
01. Король и шут (2:42)
02. Два друга и разбойники (2:15)
03. Сапоги мертвеца (2:30)
04. Охотник (2:36)
05. Паника в селе (3:17)
06. Истинный убийца (2:02)
07. Лесник (3:12)
08. Помоги мне! (2:27)
09. История о мертвой женщине (3:43)
10. Кукольный театр (2:52)
11. Валет и Дама (3:32)
12. Весёлые тролли (3:32)
13. Он не знает, что такое жить! (2:17)
14. Отец и маски (3:04)
15. Сказка про дракона (2:54)
16. Инструмент (2:05)
17. Собрание (4:03)
Музыка - М. Горшенёв (Горшок) кроме 7,11 (М.Горшенев, А.Князев)
Стихи А. Князев (Князь) кроме 17 (М.Горшенев)
Бас - А. Балунов (Балу)
Гитара, - Я. Цвиркунов
Барабаны - А. Щиголев (Поручик)

EAC extraction logfile from 9. April 2007, 11:07 for CD
Король и Шут / Будь как дома, Путник...

Used drive : PIONEER DVD-RW DVR-111L Adapter: 0 ID: 0
Read mode : Secure with NO C2, accurate stream, disable cache
Read offset correction : 48
Overread into Lead-In and Lead-Out : No

Used output format : Internal WAV Routines
44.100 Hz; 16 Bit; Stereo

Other options :
Fill up missing offset samples with silence : Yes
Delete leading and trailing silent blocks : No
Installed external ASPI interface

Range status and errors
Selected range
Filename D:\Korol i Shut\Будь как дома, Путник\CDImage.wav

Peak level 99.9 %
Range quality 100.0 %
CRC D0877A20
Copy OK

No errors occured

End of status report



Продолжительность: 00:58:45

Треклист:
01. Кукла колдуна (3:24)
02. Наблюдатель (4:44)
03. Бедняжка (4:10)
04. Прыгну со скалы (3:13)
05. Девушка и Граф (4:33)
06. Песня мушкетеров (3:48)
07. Тяни! (2:56)
08. Утренний рассвет (2:29)
09. Сосиска (2:13)
10. Карапуз (2:35)
11. Спятил отец (3:30)
12. Ведьма и Осел (2:58)
13. Екатирина (2:13)
14. Прерванная любовь, или Арбузная корка (2:58)
15. Мотоцикл (2:10)
16. Голые коки (2:40)
17. Забытые ботинки (8:10)
Музыка - А. Князев (Князь) кроме 8,15 (М.Горшенев)
Стихи А. Князев (Князь)
Бас, музыка(15), вокал(6, Арамис) - А. Балунов (Балу)
Гитара, вокал(6, Атос) - Я. Цвиркунов
Барабаны - А. Щиголев (Поручик)
Скрипка, бэк-вокал - М. Нефёдова
Звукорежиссер, клавесин - Павел Сажинов
В записи принимали участие:
вокал (2 и 5) - Марина Капуро
скрипка (2 и 5) - Мария Бессонова

EAC extraction logfile from 9. April 2007, 21:57 for CD
Король и Шут / Акустический альбом

Used drive : PIONEER DVD-RW DVR-111L Adapter: 0 ID: 0
Read mode : Secure with NO C2, accurate stream, disable cache
Read offset correction : 48
Overread into Lead-In and Lead-Out : No

Used output format : Internal WAV Routines
44.100 Hz; 16 Bit; Stereo

Other options :
Fill up missing offset samples with silence : Yes
Delete leading and trailing silent blocks : No
Installed external ASPI interface

Range status and errors
Selected range
Filename D:\CDImage.wav

Peak level 99.9 %
Range quality 100.0 %
CRC E4F65442
Copy OK

No errors occured

End of status report




Продолжительность: 00:51:41

Треклист:
01. Дед На Свадьбе (4:47)
02. Запрет Отца (3:31)
03. Кузнец (3:00)
04. Разговор С Гоблином (2:32)
05. Вор, Граф И Графиня (2:56)
06. Что Видел Малыш (3:27)
07. Невеста Плача (4:23)
08. Мастер Приглашает В Гости (3:15)
09. Бродяга И Старик (4:09)
10. Смерть Халдея (3:40)
11. Помнят С Горечью Древляне (3:57)
12. Про Ивана (2:37)
13. Воспоминание О Былой Любви (2:59)
14. Садовник (live) (3:04)
15. Паника В Селе (live) (3:26)
Музыка - М. Горшенёв (Горшок) - 2-8,10,11,13
и А. Князев (Князь) - 1,9,12, Стихи А. Князев (Князь)
Бас - А. Балунов (Балу)
Гитара - Я. Цвиркунов
Барабаны - А. Щиголев (Поручик)
Скрипка, вокал в песне 4 - М. Нефёдова
Павел Сажинов - звукорежиссер

в записи принимали участие:
Александр Гордеев (Разные люди) - губная гармошка
Сергей Чиграков(Чиж) - акустическая гитара
Максим Юрак(Пилот) - скрипка

Рисунки А. Князев

EAC extraction logfile from 9. April 2007, 11:48 for CD
Король И Шут / Герои И Злодеи

Used drive : PIONEER DVD-RW DVR-111L Adapter: 0 ID: 0
Read mode : Secure with NO C2, accurate stream, disable cache
Read offset correction : 48
Overread into Lead-In and Lead-Out : No

Used output format : Internal WAV Routines
44.100 Hz; 16 Bit; Stereo

Other options :
Fill up missing offset samples with silence : Yes
Delete leading and trailing silent blocks : No
Installed external ASPI interface

Range status and errors
Selected range
Filename D:\Korol i Shut\Герои И Злодеи\CDImage.wav

Peak level 100.0 %
Range quality 100.0 %
CRC C70BE460
Copy OK

No errors occured

End of status report




Продолжительность: 00:52:22

Треклист:
01. Дед на свадьбе (4:47)
02. Запрет отца (3:30)
03. Кузнец (2:58)
04. Разговор с гоблином (2:30)
05. Вор, графиня и малыш (2:53)
06. Что видел малыш (3:26)
07. Невеста палача (4:21)
08. Мастер приглашает в гости (3:13)
09. Бродяга и старик (4:06)
10. Смарть халдея (3:37)
11. Помнят с горечью древляне (3:54)
12. Про Ивана (2:34)
13. Воспоминания о былой любви (3:00)
14. Разбойники (live) (4:10)
15. Паника в селе (live) (3:24)

Exact Audio Copy V0.99 prebeta 3 from 28. July 2007

Отчёт EAC об извлечении, выполненном 18. декабря 2007, 14:27

Король и Шут / Герои и Злодеи (издание 2002)

Дисковод: Optiarc DVD RW AD-7170S Adapter: 1 ID: 0

Режим чтения : Достоверность
Использование точного потока : Да
Отключение кэша аудио : Да
Использование указателей C2 : Нет

Коррекция смещения при чтении : 48
Способность читать области Lead-in и Lead-out : Нет
Заполнение пропущенных сэмплов тишиной : Да
Удаление блоков с тишиной в начале и конце : Нет
При вычислениях CRC использовались нулевые сэмплы : Да
Интерфейс : Установленный внешний ASPI-интерфейс

Выходной формат : Внутренние WAV-операции
Формат сэмплов : 44.100 Гц; 16 бит; стерео
Смещение при сжатии : 48

TOC извлечённого CD

Трек | Старт | Длительность | Начальный сектор | Конечный сектор
---------------------------------------------------------------------
1 | 0:00.00 | 4:46.74 | 0 | 21523
2 | 4:46.74 | 3:30.35 | 21524 | 37308
3 | 8:17.34 | 2:57.71 | 37309 | 50654
4 | 11:15.30 | 2:29.44 | 50655 | 61873
5 | 13:44.74 | 2:52.45 | 61874 | 74818
6 | 16:37.44 | 3:26.29 | 74819 | 90297
7 | 20:03.73 | 4:20.40 | 90298 | 109837
8 | 24:24.38 | 3:13.27 | 109838 | 124339
9 | 27:37.65 | 4:05.47 | 124340 | 142761
10 | 31:43.37 | 3:36.70 | 142762 | 159031
11 | 35:20.32 | 3:53.66 | 159032 | 176572
12 | 39:14.23 | 2:34.29 | 176573 | 188151
13 | 41:48.52 | 2:59.41 | 188152 | 201617
14 | 44:48.18 | 4:09.52 | 201618 | 220344
15 | 48:57.70 | 3:24.04 | 220345 | 235648

Характеристики диапазона извлечения и сообщения об ошибках

Выбранный диапазон

Имя файла H:\Король и Шут - Герои и Злодеи (издание 2002).wav

Пиковый уровень 100.0 %
Качество диапазона 99.9 %
CRC копии 9E0E3430
Копирование... OK

Ошибок не произошло

AccurateRip: сводка
Трек 1 нет в базе данных
Трек 2 нет в базе данных
Трек 3 нет в базе данных
Трек 4 нет в базе данных
Трек 5 нет в базе данных
Трек 6 нет в базе данных
Трек 7 нет в базе данных
Трек 8 нет в базе данных
Трек 9 нет в базе данных
Трек 10 нет в базе данных
Трек 11 нет в базе данных
Трек 12 нет в базе данных
Трек 13 нет в базе данных
Трек 14 нет в базе данных
Трек 15 нет в базе данных
Ни одного трека нет в базе AccurateRip

Конец отчёта





Продолжительность: 00:56:56

Треклист:
01. Гимн шута (5:00)
02. Проклятый старый дом (4:17)
03. Тайна хозяйки старинных часов (3:31)
04. Кузьма и Барин (3:08)
05. Пират (3:55)
06. Скотный двор (2:22)
07. Возвращение колдуна (3:15)
08. Зловещий кузен (3:11)
09. Ответ - лютая месть (3:47)
10. Рогатый (3:15)
11. Двухголовый Отпрыск (1:52)
12. Два монаха в одну ночь (2:01)
13. Кто это все придумал (2:57)
14. Пивной череп (3:00)
15. Парень и леший (4:10)
16. Похороны панка (2:19)
17. Воспоминания о былой любви (4:55)
Музыка - М. Горшенёв (Горшок) - 2,4,6,7,9,11,12,14,16,17
и А. Князев (Князь) - 1,3,5,8,10,13,15
Стихи А. Князев (Князь) кроме 14 (М.Горшенев)
Бас - А. Балунов (Балу)
Гитара - Я. Цвиркунов
Гитара - А. Леонтьев (Ренегат)
Барабаны - А. Щиголев (Поручик)
Скрипка, вокал в песне 4 - М. Нефёдова
Звукорежиссер - Павел Сажинов
Рисунки А. Князев

EAC extraction logfile from 9. April 2007, 12:34 for CD
Король и Шут / Как в старой сказке

Used drive : PIONEER DVD-RW DVR-111L Adapter: 0 ID: 0
Read mode : Secure with NO C2, accurate stream, disable cache
Read offset correction : 48
Overread into Lead-In and Lead-Out : No

Used output format : Internal WAV Routines
44.100 Hz; 16 Bit; Stereo

Other options :
Fill up missing offset samples with silence : Yes
Delete leading and trailing silent blocks : No
Installed external ASPI interface

Range status and errors
Selected range
Filename D:\Korol i Shut\Как в старой сказке\CDImage.wav

Peak level 97.0 %
Range quality 100.0 %
CRC EC15BA0A
Copy OK

No errors occured

End of status report




Продолжительность: 00:55:48

Треклист:
01. Волосокрад (4:27)
02. Мертвый Анархист (4:08)
03. Смешной Совет (4:06)
04. Некромант (2:44)
05. Защитник Свиней (2:45)
06. Генрих и Смерть (2:25)
07. Жаль, нет Ружья! (3:40)
08. Представляю Я (2:10)
09. Мой Характер (3:51)
10. Песенка пьяного деда (2:05)
11. Водяной (2:10)
12. Вдова и Горбун (3:11)
13. Вино Хоббитов (4:33)
14. Разборки из-за Баб (3:44)
15. Утопленник (4:04)
16. Медведь (3:31)
17. Пьянка (2:13)
Музыка - М. Горшенёв (Горшок) - 2,3,5,6,8,9,11,13,16,17
и А. Князев (Князь) - 1,4,7,10,12,14,15
Стихи А. Князев (Князь)
Бас - А. Балунов (Балу)
Гитара - Я. Цвиркунов
Гитара - А. Леонтьев (Ренегат)
Барабаны - А. Щиголев (Поручик)
Скрипка - М. Нефёдова
Звукорежиссер - Павел Сажинов

Запись и свидение произведены на студии "Добролют".
Саунд-продюсеры: Павел Сажинов и Евгений Левин
Фотографии: Валерий Кузнецов
Дизайн обложки: Юрий Солодовников

EAC extraction logfile from 9. April 2007, 15:45 for CD
Король и Шут / Жаль, нет Ружья

Used drive : PIONEER DVD-RW DVR-111L Adapter: 0 ID: 0
Read mode : Secure with NO C2, accurate stream, disable cache
Read offset correction : 48
Overread into Lead-In and Lead-Out : No

Used output format : Internal WAV Routines
44.100 Hz; 16 Bit; Stereo

Other options :
Fill up missing offset samples with silence : Yes
Delete leading and trailing silent blocks : No
Installed external ASPI interface

Range status and errors
Selected range
Filename D:\Korol i Shut\Жаль, нет Ружья\CDImage.wav

Peak level 100.0 %
Range quality 100.0 %
CRC 1047561A
Copy OK

No errors occured

End of status report





Продолжительность: 00:39:36

Треклист:
01. Хардкор по-русски (2:53)
02. Волшебный глаз старика Алонса (1:37)
03. Исповедь вампира (3:35)
04. Месть Гарри (3:08)
05. Северный флот (2:11)
06. Идол (3:00)
07. Бунт на корабле! (1:52)
08. Хороший пират - мертвый пират! (4:13)
09. Рыцарь (2:46)
10. Звонок (1:59)
11. Инквизитор (3:47)
12. Задира и солдат (3:39)
13. Раненый воин (1:42)
14. Муха (0:06)
15. Хозяин леса (3:08)
Музыка - М. Горшенёв (Горшок) 1,5,7,10,11,13,14; А.Князев(Князь) 2,4,6,9,12;
М. Горшенев и А.Леонтьев (Ренегат) 3,8.
Стихи А. Князев (Князь) 1,2,4,6,7,9,11,12,13; М.Горшенев(Горшок) 5,10;
А.Князев и М. Горшенев 14;
Все аранжировки - группа "Король и Шут"
Гитара, бэк-вокал - А. Леонтьев (Ренегат)
Гитара - Я.Цвиркунов
Бас - А. Балунов (Балу)
Барабаны - А. Щиголев (Поручик)
Звукорежиссер - Павел Сажинов
Запись и сведение произведены на студии "Добролет".
Саунд-продюсеры: Павел Сажинов и Евгений Левин
Мастеринг - Skyline Studios (г. Дюссельдорф)
В записи принимали участие "Рикошет" (Объект Насмешек),
Евгений "Ай-Ай-Ай" Федоров (Tequilajazzz).

Exact Audio Copy V0.99 prebeta 3 from 28. July 2007

Отчёт EAC об извлечении, выполненном 6. ноября 2007, 15:22

Король и Шут / Бунт на корабле

Дисковод: PLEXTOR CD-R PX-W5224A Adapter: 0 ID: 1

Режим чтения : Достоверность
Использование точного потока : Да
Отключение кэша аудио : Да
Использование указателей C2 : Нет

Коррекция смещения при чтении : 30
Способность читать области Lead-in и Lead-out : Нет
Заполнение пропущенных сэмплов тишиной : Да
Удаление блоков с тишиной в начале и конце : Нет
При вычислениях CRC использовались нулевые сэмплы : Да
Интерфейс : Установленный внешний ASPI-интерфейс

Выходной формат : Внутренние WAV-операции
Формат сэмплов : 44.100 Гц; 16 бит; стерео

TOC извлечённого CD

Трек | Старт | Длительность | Начальный сектор | Конечный сектор
---------------------------------------------------------------------
1 | 0:00.00 | 2:52.65 | 0 | 12964
2 | 2:52.65 | 1:37.28 | 12965 | 20267
3 | 4:30.18 | 3:34.48 | 20268 | 36365
4 | 8:04.66 | 3:07.69 | 36366 | 50459
5 | 11:12.60 | 2:10.58 | 50460 | 60267
6 | 13:23.43 | 3:00.02 | 60268 | 73769
7 | 16:23.45 | 1:52.20 | 73770 | 82189
8 | 18:15.65 | 4:12.72 | 82190 | 101161
9 | 22:28.62 | 2:45.43 | 101162 | 113579
10 | 25:14.30 | 1:59.32 | 113580 | 122536
11 | 27:13.62 | 3:46.71 | 122537 | 139557
12 | 31:00.58 | 3:38.68 | 139558 | 155975
13 | 34:39.51 | 1:42.20 | 155976 | 163645
14 | 36:21.71 | 0:05.52 | 163646 | 164072
15 | 36:27.48 | 3:08.11 | 164073 | 178183
16 | 42:07.59 | 3:39.57 | 189584 | 206065

Характеристики диапазона извлечения и сообщения об ошибках

Выбранный диапазон

Имя файла E:\Music\Король и шут\Новая папка\Король и Шут - Бунт на корабле.wav

Пиковый уровень 98.1 %
Качество диапазона 100.0 %
CRC копии 88D76CCA
Копирование... OK

Ошибок не произошло

AccurateRip: сводка
Трек 1 точное извлечение (доверие 1) [ACF0FBD4]
Трек 2 точное извлечение (доверие 1) [2E275425]
Трек 3 точное извлечение (доверие 1) [ADBD58A8]
Трек 4 точное извлечение (доверие 1) [1222B6D7]
Трек 5 точное извлечение (доверие 1) [86942844]
Трек 6 точное извлечение (доверие 1) [7C3D55B8]
Трек 7 точное извлечение (доверие 1) [9CB8DB58]
Трек 8 точное извлечение (доверие 1) [B4FE417F]
Трек 9 точное извлечение (доверие 1) [BC60E6DF]
Трек 10 точное извлечение (доверие 1) [63C810F6]
Трек 11 точное извлечение (доверие 1) [A0A7035B]
Трек 12 точное извлечение (доверие 1) [9A313119]
Трек 13 точное извлечение (доверие 1) [CDC9C38E]
Трек 14 нет в базе данных
Трек 15 точное извлечение (доверие 1) [D40E0429]
14 трек(и) скопированы точно
1 трек(и) не содержатся в базе AccurateRip

Некоторые треки не прошли проверку на точность

Конец отчёта



Продолжительность: 01:01:00

Треклист:
01. Марионетки (3:36)
02. Маска (4:44)
03. Ром (2:41)
04. Гробовщик (3:55)
05. Дочка вурдалака (4:08)
06. Свой среди чужих (4:09)
07. Отражение (5:33)
08. Та, что смотрит из пруда (3:11)
09. В гостях у соседа (3:47)
10. Хозяин таверны (2:58)
11. Писатель Гудвин (3:05)
12. Джокер (3:16)
13. Пляски на могиле (3:32)
14. Матерый волк (2:15)
15. Продавец кошмаров (3:36)
16. Город мертвецов (+bonus) (6:34)
Музыка - М. Горшенёв (Горшок) 1,2,4,6,7,8,10,12,14,15,16; А.Князев(Князь) 3,5,9,11,13;
Стихи А. Князев (Князь)
Все аранжировки - группа "Король и Шут"
Гитара - Я.Цвиркунов
Барабаны - А. Щиголев (Поручик)
Бас - Сергей Захаров
Скрипка - Casper
клавишные - Павел Сажинов и Сasper
Звукорежиссер - Павел Сажинов
Записано на студии "Добролет", "Нева" (Санкт-Петербург)
и "Наше Время" (Москва)
Саунд-продюсер: Сергей Большаков
Сведение и мастеринг - Сергей Большаков, студия "Наше Время"
В записи принимали участие:
Александр Леонтьев "Ренегад" - гитара
Ансамбль "Spitfire" - трубы
Лена Тэ - виолончель

Exact Audio Copy V0.99 prebeta 3 from 28. July 2007

Отчёт EAC об извлечении, выполненном 6. ноября 2007, 22:15

Король и Шут / Продавец кошмаров

Дисковод: PLEXTOR CD-R PX-W5224A Adapter: 0 ID: 1

Режим чтения : Достоверность
Использование точного потока : Да
Отключение кэша аудио : Да
Использование указателей C2 : Нет

Коррекция смещения при чтении : 30
Способность читать области Lead-in и Lead-out : Нет
Заполнение пропущенных сэмплов тишиной : Да
Удаление блоков с тишиной в начале и конце : Нет
При вычислениях CRC использовались нулевые сэмплы : Да
Интерфейс : Установленный внешний ASPI-интерфейс

Выходной формат : Внутренние WAV-операции
Формат сэмплов : 44.100 Гц; 16 бит; стерео

TOC извлечённого CD

Трек | Старт | Длительность | Начальный сектор | Конечный сектор
---------------------------------------------------------------------
1 | 0:00.00 | 3:36.00 | 0 | 16199
2 | 3:36.00 | 4:44.00 | 16200 | 37499
3 | 8:20.00 | 2:41.09 | 37500 | 49583
4 | 11:01.09 | 3:55.08 | 49584 | 67216
5 | 14:56.17 | 4:08.29 | 67217 | 85845
6 | 19:04.46 | 4:09.34 | 85846 | 104554
7 | 23:14.05 | 5:32.58 | 104555 | 129512
8 | 28:46.63 | 3:11.11 | 129513 | 143848
9 | 31:57.74 | 3:47.11 | 143849 | 160884
10 | 35:45.10 | 2:58.05 | 160885 | 174239
11 | 38:43.15 | 3:04.61 | 174240 | 188100
12 | 41:48.01 | 3:16.11 | 188101 | 202811
13 | 45:04.12 | 3:31.59 | 202812 | 218695
14 | 48:35.71 | 2:14.38 | 218696 | 228783
15 | 50:50.34 | 3:35.73 | 228784 | 244981
16 | 54:26.32 | 6:33.44 | 244982 | 274500

Характеристики диапазона извлечения и сообщения об ошибках

Выбранный диапазон

Имя файла E:\Music\Король и шут\Lossless Discography\Король и Шут - Продавец кошмаров.wav

Пиковый уровень 100.0 %
Качество диапазона 99.9 %
CRC копии 0511AAEA
Копирование... OK

Ошибок не произошло

AccurateRip: сводка
Трек 1 нет в базе данных
Трек 2 нет в базе данных
Трек 3 нет в базе данных
Трек 4 нет в базе данных
Трек 5 нет в базе данных
Трек 6 нет в базе данных
Трек 7 нет в базе данных
Трек 8 нет в базе данных
Трек 9 нет в базе данных
Трек 10 нет в базе данных
Трек 11 нет в базе данных
Трек 12 нет в базе данных
Трек 13 нет в базе данных
Трек 14 нет в базе данных
Трек 15 нет в базе данных
Трек 16 нет в базе данных
Ни одного трека нет в базе AccurateRip

Конец отчёта




Продолжительность: 00:59:03

Треклист:
01. Полутень клоуна
02. Тень клоуна
03. Дагон
04. Двое против всех
05. В Париж - домой
06. Ричард Гордон
07. Фред
08. Санта Клаус
09. Кода
10. Заговор в суде
11. Невидимка
12. A.M.T.V.
13. Полутень зомби
14. Ходит зомби
15. Смешной пистолет
16. Вестник
17. Клейменный огнем
18. Тринадцатая рана
19. Суфлер
Горшенёв Михаил "Горшок" - вокал, акустическая гитара
Князев Андрей "Князь" - вокал
Цвиркунов Яков - гитара, акустическая гитара
Захаров Сергей - бас, акустическая гитара
Щиголев Александр "Поручик" - барабаны
Сажинов Павел - клавиши, звук
Ришко Дмитрий "Casper" - скрипка
Неволин Денис - звукорежиссура (запись, сведение)
Райдугин Дмитрий - художник по свету
Савельев Аркадий - техническое обеспечение

Аранжировки - группа "Король и Шут"

Музыка: 1,2,4,6,8,11,13,14,15 - М. Горшенёв
3,5,7,9,12 - А. Князев

Слова: 1-9,11,12,14 - А. Князев
10 - М. Горшенёв, 15 - А. Федечко
13 - Говард Лавкрафт

ОБЩЕЕ ВРЕМЯ ЗВУЧАНИЯ: 54:55

Запись: студия "Станция Звука", Санкт-Петербург
мастеринг: студия "Мосфильм", Москва

Оформление: рисунки Андрея Князева
дизайн Константина Календарёва

Группа благодарит Владимира Овчинникова, Бориса Истомина и Бориса Рубекина (Аквариум) за помощь при создании альбома.

Exact Audio Copy V0.99 prebeta 4 from 23. January 2008

Отчёт EAC об извлечении, выполненном 20. ноября 2008, 17:32

Король и Шут / Тень Клоуна

Дисковод: Optiarc DVD RW AD-5200A Adapter: 1 ID: 1

Режим чтения : Достоверность
Использование точного потока : Да
Отключение кэша аудио : Да
Использование указателей C2 : Нет

Коррекция смещения при чтении : 48
Способность читать области Lead-in и Lead-out : Нет
Заполнение пропущенных сэмплов тишиной : Да
Удаление блоков с тишиной в начале и конце : Нет
При вычислениях CRC использовались нулевые сэмплы : Да
Интерфейс : Встроенный Win32-интерфейс для Win NT/2000

Выходной формат : Внутренние WAV-операции
Формат сэмплов : 44.100 Гц; 16 бит; стерео

TOC извлечённого CD

Трек | Старт | Длительность | Начальный сектор | Конечный сектор
---------------------------------------------------------------------
1 | 0:00.00 | 0:33.59 | 0 | 2533
2 | 0:33.59 | 2:16.70 | 2534 | 12803
3 | 2:50.54 | 5:02.53 | 12804 | 35506
4 | 7:53.32 | 3:52.68 | 35507 | 52974
5 | 11:46.25 | 4:55.24 | 52975 | 75123
6 | 16:41.49 | 3:33.11 | 75124 | 91109
7 | 20:14.60 | 3:20.23 | 91110 | 106132
8 | 23:35.08 | 3:14.34 | 106133 | 120716
9 | 26:49.42 | 3:53.40 | 120717 | 138231
10 | 30:43.07 | 0:38.15 | 138232 | 141096
11 | 31:21.22 | 3:53.06 | 141097 | 158577
12 | 35:14.28 | 3:54.13 | 158578 | 176140
13 | 39:08.41 | 0:25.60 | 176141 | 178075
14 | 39:34.26 | 1:56.10 | 178076 | 186785
15 | 41:30.36 | 2:26.20 | 186786 | 197755
16 | 43:56.56 | 3:39.49 | 197756 | 214229
17 | 47:36.30 | 4:35.47 | 214230 | 234901
18 | 52:12.02 | 2:41.12 | 234902 | 246988
19 | 54:53.14 | 4:10.12 | 246989 | 265750

Характеристики диапазона извлечения и сообщения об ошибках

Выбранный диапазон

Имя файла D:\lossless\Король и Шут - Тень Клоуна.wav

Пиковый уровень 97.4 %
Качество диапазона 100.0 %
CRC копии E312AB40
Копирование... OK

Ошибок не произошло

AccurateRip: сводка
Трек 1 нет в базе данных
Трек 2 нет в базе данных
Трек 3 нет в базе данных
Трек 4 нет в базе данных
Трек 5 нет в базе данных
Трек 6 нет в базе данных
Трек 7 нет в базе данных
Трек 8 нет в базе данных
Трек 9 нет в базе данных
Трек 10 нет в базе данных
Трек 11 нет в базе данных
Трек 12 нет в базе данных
Трек 13 нет в базе данных
Трек 14 нет в базе данных
Трек 15 нет в базе данных
Трек 16 нет в базе данных
Трек 17 нет в базе данных
Трек 18 нет в базе данных
Трек 19 нет в базе данных
Ни одного трека нет в базе AccurateRip

Конец отчёта



Продолжительность: 00:45:37

Треклист:
01. Послание (1:58)
02. Театральный демон (3:34)
03. Киногерой (3:35)
04. Фокусник (3:33)
05. Танец злобного гения (3:56)
06. Энди Кауфман (2:33)
07. Мадам Жоржетт (6:08)
08. Бунтарь (4:13)
09. Тёмный учитель (4:36)
10. Король вечного сна (5:03)
11. Бал лицемеров (3:06)
12. Защитники (3:22)
Группа «Король и Шут»:

Михаил «Горшок» Горшенёв - вокал
Андрей «Князь» Князев - вокал
Яков Цвиркунов - акустическая гитара
Александр «Поручик» Щиголев - барабаны
Сергей «Захар» Захаров - бас
Павел Сажинов - рояль, металлофон
Дмитрий «Casper» Ришко - скрипка

В записи также принимали участие:

Олег «Шар» Шавкунов (группа «Аквариум») - перкуссия
Дмитрий Оганян (группа «Кукрыниксы») - виолончель
Сергей Стародубцев (группа «Кафе») - мандолина, dobro
Сергей «Ангел» Давыдов - акустическая гитара
Александр Суворов - губная гармошка
Стас Макаров - труба

Музыка: 1, 2, 4, 5, 7, 9, 10, 12 - Михаил Горшенёв;
3, 6, 8, 11 - Андрей Князев.

Стихи: 2, 3, 4, 5, 6, 8, 9, 11 - Андрей Князев;
10, 12 - Михаил Горшенёв;
7 - Андрей Князев и Михаил Горшенёв.

Аранжировки - группа «Король и Шут».

Михаил Рахов - концертная звукорежиссура
Дмитрий Райдугин - художник по свету
Аркадий Савельев - техническая поддержка

Запись произведена на студии «Станция Звука» и студии грамзаписи «Мелодия».
Режиссёры звукозаписи: Денис Неволин и Кира Малевская
Сведение и мастеринг - Денис Неволин.

Художественная группа: Анна Солуянова, Мария Кузнецова, Алексей Костромин, Ольга Погребная.

Exact Audio Copy V0.99 prebeta 5 from 4. May 2009

EAC extraction logfile from 15. October 2010, 21:51

Король и Шут / Театръ Демона

Used drive : TSSTcorpCDDVDW SH-S222A Adapter: 0 ID: 0

Read mode : Secure
Utilize accurate stream : Yes
Defeat audio cache : Yes
Make use of C2 pointers : No

Read offset correction : 6
Overread into Lead-In and Lead-Out : No
Fill up missing offset samples with silence : Yes
Delete leading and trailing silent blocks : No
Null samples used in CRC calculations : Yes
Used interface : Native Win32 interface for Win NT & 2000

Used output format : Internal WAV Routines
Sample format : 44.100 Hz; 16 Bit; Stereo

TOC of the extracted CD

Track | Start | Length | Start sector | End sector
---------------------------------------------------------
1 | 0:00.00 | 1:57.40 | 0 | 8814
2 | 1:57.40 | 3:33.59 | 8815 | 24848
3 | 5:31.24 | 3:35.25 | 24849 | 40998
4 | 9:06.49 | 3:33.11 | 40999 | 56984
5 | 12:39.60 | 3:56.01 | 56985 | 74685
6 | 16:35.61 | 2:33.07 | 74686 | 86167
7 | 19:08.68 | 6:08.12 | 86168 | 113779
8 | 25:17.05 | 4:13.29 | 113780 | 132783
9 | 29:30.34 | 4:35.49 | 132784 | 153457
10 | 34:06.08 | 5:02.46 | 153458 | 176153
11 | 39:08.54 | 3:06.31 | 176154 | 190134
12 | 42:15.10 | 3:21.63 | 190135 | 205272

Range status and errors

Selected range

Filename D:\emish\RuTracker\Король и Шут - Театръ Демона (2010)\Король и Шут - Театръ Демона.wav

Peak level 97.7 %
Range quality 100.0 %
Test CRC E31AF682
Copy CRC E31AF682
Copy OK

No errors occurred

AccurateRip summary
Track 1 not present in database
Track 2 not present in database
Track 3 not present in database
Track 4 not present in database
Track 5 not present in database
Track 6 not present in database
Track 7 not present in database
Track 8 not present in database
Track 9 not present in database
Track 10 not present in database
Track 11 not present in database
Track 12 not present in database
None of the tracks are present in the AccurateRip database

End of status report




Продолжительность: 00:39:11

Треклист:
I. Добрые Люди (Хор нищих)
II. Баллада о Бедном Цирюльнике (Ария Бродяги)
III. Каторжник (Ария Тодда)
IV. Пирожки от Ловетт (Хор нищих и бродяг)
V. Праздник Крови (Ария Судьи)
VI. Машина Смерти (Ария Ловетт и Мясника)
VII. Смертный Приговор (Ария Тодда и Мясника)
VIII. Признание Ловетт (Ария Ловетт)
IX. Первая Кровь (Ария Священника и Тодда)
X. Новая Пирожковая (Ария благородной толпы)
XI. Счастье? (Ария Тодда)
TODD. Акт 1. Праздник крови — одиннадцатый студийный альбом российской рок-группы «Король и Шут», составленный из музыки из зонг-оперы ужасов «ТОDD» вышедший 8 декабря 2011 года. «Праздник крови» — это только первая часть альбома с песнями из зонг-оперы «TODD», составленная из более агрессивных номеров. В заглавной роли монументального проекта выступил Михаил «Горшок» Горшенев, который исполнил вокальные партии Суини Тодда, принял участие в записи партий толпы и хора, а также спел трагическую «Балладу о Цирюльнике» от лица рассказчика повествования.

Участники записи

Помимо музыкантов группы «Король и Шут», в записи «Праздника Крови» приняли участие:
Юлия Коган («Ленинград») — Ловетт;
Билли Новик (Billy’s Band)- Мясник, толпа и хор;
Константин Кинчев — Священник и Судья;
Вениамин Смехов — рассказчик повествования;
Валерий Аркадин (ex-«НАИВ», Глеб Самойлов & The Matrixx) — гитарист и аранжировщик проекта.

Отчёт EAC об извлечении, выполненном 4. апреля 2012, 23:53 для диска:
Король и Шут / TODD. Акт 1. Праздник Крови

Дисковод: SlimtypeDVD A DS8A5SH Adapter: 0 ID: 1
Режим чтения: Достоверный (C2: нет, Точный поток: да, Отключение кэша: да)
Коррекция смещения при чтении: 6
Способность читать области Lead-in и Lead-out : Нет

Выходной формат: Внутренние WAV-операции
44.100 Гц; 16 бит; стерео

Другие параметры:
Заполнение пропущенных сэмплов тишиной : Да
Удаление блоков с тишиной в начале и конце : Нет
Встроенный Win32-интерфейс для Win NT/2000

Характеристики диапазона извлечения и сообщения об ошибках
Выбранный диапазон
Имя файла D:\Музыка\Lossless\Flac\Король и Шут\Album\2011 - TODD. Акт 1. Праздник Крови\Король и Шут - TODD. Акт 1. Праздник Крови.wav

Пиковый уровень 100.0 %
Качество диапазона 100.0 %
CRC CCA14BC9
Копирование... OK

Ошибок не произошло

Конец отчёта




Продолжительность: 00:36:25

Треклист:
01. I. Смерть На Балу (Ария Солиста и Тодда)
02. II. Маленький Остров (Ария Ловетт)
03. III. Неупокоенный (Ария Тодда)
04. IV. Выход Судьи (Ария Судьи)
05. V. Христова Невеста (Дуэт Элизы и Тодда)
06. VI. Священник Больше Ничего Не Скажет (Ария Тодда)
07. VII. Небесный Суд (Дуэт Судьи и Тодда)
08. VIII. Почему Ты Жива? (Ария Тодда)
09. IX. Смерть Ловетт (Ария Ловетт)
10. X. На Краю (Последния ария Тодда)
Exact Audio Copy V1.0 beta 1 from 15. November 2010

Отчёт EAC об извлечении, выполненном 26. мая 2012, 22:03

Король и Шут / TODD. Акт 2. На Краю

Дисковод: SONY BD RW BWU-500S Adapter: 4 ID: 0

Режим чтения : Достоверность
Использование точного потока : Да
Отключение кэша аудио : Да
Использование указателей C2 : Нет

Коррекция смещения при чтении : 6
Способность читать области Lead-in и Lead-out : Нет
Заполнение пропущенных сэмплов тишиной : Да
Удаление блоков с тишиной в начале и конце : Нет
При вычислениях CRC использовались нулевые сэмплы : Да
Интерфейс : Встроенный Win32-интерфейс для Win NT/2000

Выходной формат : Пользовательский кодировщик
Выбранный битрейт : 1024 kBit/s
Качество : Высокий
Добавление ID3-тега : Да
Утилита сжатия : C:\Program Files\Exact Audio Copy\Flac\flac.exe
Дополнительные параметры : -8 -V %s

TOC извлечённого CD

Трек | Старт | Длительность | Начальный сектор | Конечный сектор
---------------------------------------------------------------------
1 | 0:00.00 | 4:41.12 | 0 | 21086
2 | 4:41.12 | 2:50.22 | 21087 | 33858
3 | 7:31.34 | 2:46.02 | 33859 | 46310
4 | 10:17.36 | 4:33.22 | 46311 | 66807
5 | 14:50.58 | 3:50.41 | 66808 | 84098
6 | 18:41.24 | 4:23.53 | 84099 | 103876
7 | 23:05.02 | 4:37.11 | 103877 | 124662
8 | 27:42.13 | 3:03.56 | 124663 | 138443
9 | 30:45.69 | 1:34.14 | 138444 | 145507
10 | 32:20.08 | 4:05.27 | 145508 | 163909

Характеристики диапазона извлечения и сообщения об ошибках

Выбранный диапазон

Имя файла D:\e\Раздача\Музыка (LossLess)\Король и Шут - TODD. Акт 2. На краю (FLAC)\Король и Шут - TODD. Акт 2. На Краю.wav

Пиковый уровень 96.7 %
Скорость извлечения 0.8 X
Качество диапазона 100.0 %
CRC теста 7E45670E
CRC копии 7E45670E
Копирование... OK

Ошибок не произошло

AccurateRip: сводка
Трек 1 отсутствует в базе данных
Трек 2 отсутствует в базе данных
Трек 3 отсутствует в базе данных
Трек 4 отсутствует в базе данных
Трек 5 отсутствует в базе данных
Трек 6 отсутствует в базе данных
Трек 7 отсутствует в базе данных
Трек 8 отсутствует в базе данных
Трек 9 отсутствует в базе данных
Трек 10 отсутствует в базе данных
Ни одного трека нет в базе AccurateRip

Конец отчёта




Сборники:



Продолжительность: 01:15:32

Треклист:
01. Камнем по голове (2:35)
02. Два вора и монета (2:13)
03. Сапоги мертвеца (2:27)
04. Садовник (3:42)
05. Два друга и разбойники (2:12)
06. Дурак и молния (1:53)
07. Охотник (2:33)
08. Песня мушкетеров (3:47)
09. Тяни (2:54)
10. Мотоцикл (2:51)
11. Смельчак и ветер (2:57)
12. Кукла колдуна (3:23)
13. От женщин кругом голова (1:28)
14. Любовь и пропеллер (2:36)
15. Наблюдатель (4:43)
16. Валет и Дама (3:09)
17. Ведьма и осел (2:56)
18. Отец и маски (3:01)
19. Лесник (3:08)
20. Забытые ботинки (2:47)
21. Король и шут (2:38)
22. Прыгну со скалы (3:13)
23. Собрание (4:04)
24. Ели мясо мужики (2:14)
25. Рыбак (1:41)
26. Молотов (4:25)
"Мистерия звука"
Оформители: Дилан Р. Трой и Александр Р. Новиков
В издании использованы уникальные материалы из коллекции И.И.Петрова

Отчёт EAC об извлечении, выполненном 27. января 2008, 14:35 для диска:
Король и Шут / Собрание

Дисковод: HL-DT-STDVDRAM GSA-4084N Adapter: 1 ID: 0
Режим чтения: Достоверный (C2: нет, Точный поток: да, Отключение кэша: да)
Коррекция смещения при чтении: 667
Способность читать области Lead-in и Lead-out : Нет

Выходной формат: Внутренние WAV-операции
44.100 Гц; 16 бит; стерео

Другие параметры:
Заполнение пропущенных сэмплов тишиной : Да
Удаление блоков с тишиной в начале и конце : Нет
Встроенный Win32-интерфейс для Win NT/2000

Характеристики диапазона извлечения и сообщения об ошибках
Выбранный диапазон
Имя файла C:\Documents and Settings\!!!Vladimir\Рабочий стол\Король и Шут - Собрание.wav

Пиковый уровень 98.1 %
Качество диапазона 99.9 %
CRC BFE2B08E
Копирование... OK

Ошибок не произошло

Конец отчёта




Продолжительность: 01:14:07

Треклист:
01. Внезапная голова (2:26)
02. Сказка О Мертвеце (3:58)
03. Королева-Ведьма (4:38)
04. В доме суета (2:29)
05. Скупой (3:45)
06. Солдат И Колдун (6:39)
07. Гробовщик (3:53)
08. В Доме Смерть (2:17)
09. Солдат и Черт (2:01)
10. В Гостях у Соседа (3:47)
11. Кобылья Голова (3:42)
12. Мёртвый Жених (2:56)
13. Верная Жена (2:37)
14. Чёрт и Мужик (1:04)
15. Три Фельдшера (7:22)
16. Любовь и Пропеллер (2:54)
17. Сапоги Колдуна (3:54)
18. Рассказ о Ведьме (2:45)
19. Садовник (3:44)
20. Скрипач в Аду (5:28)
21. Проказник Скоморох (1:49)
В альбом входят 13 самых страшных и зловещих сказок из собраний русских народных преданий и сказок братьев Гримм и лучшие песни группы, которые сюжетно вплетаются в постановку.
Проект неспроста увлёк главных «рок-сказочников» страны: в своё время и Горшок, и Князь практически одновременно открыли для себя зловещую сторону русских сказок и легенд. Например, Горшок обнаружил, что в каждом сборнике русских народных сказок обязательно есть раздел, посвященный историям о мертвецах и ведьмах. И с тех пор очень увлёкся именно такими сказками. К работе над записью «сказочных» радиоспектаклей был привлечён театральный режиссёр, педагог Театрального института им. Щукина Андрей Левицкий. Проект оказался настолько интересным, что музыканты решили выпустить сборник страшных сказок и лучших песен на диске. Оформлением обложки диска по традиции занимался Андрей "Князь" Князев.

Режиссер-постановщик - Андрей Левицкий
Звуковое оформление сказок - Мария Ленарская
Оформление - Андрей Князев

Exact Audio Copy V0.99 prebeta 3 from 28. July 2007

Отчёт EAC об извлечении, выполненном 2. апреля 2008, 2:32

Король и Шут / Страшные сказки

Дисковод: MATSHITADVD-RAM UJ-841S Adapter: 0 ID: 1

Режим чтения : Достоверность
Использование точного потока : Да
Отключение кэша аудио : Да
Использование указателей C2 : Нет

Коррекция смещения при чтении : 102
Способность читать области Lead-in и Lead-out : Нет
Заполнение пропущенных сэмплов тишиной : Да
Удаление блоков с тишиной в начале и конце : Нет
При вычислениях CRC использовались нулевые сэмплы : Да
Интерфейс : Встроенный Win32-интерфейс для Win NT/2000

Выходной формат : Внутренние WAV-операции
Формат сэмплов : 44.100 Гц; 16 бит; стерео

TOC извлечённого CD

Трек | Старт | Длительность | Начальный сектор | Конечный сектор
---------------------------------------------------------------------
1 | 0:00.00 | 2:25.65 | 0 | 10939
2 | 2:25.65 | 3:57.45 | 10940 | 28759
3 | 6:23.35 | 4:37.48 | 28760 | 49582
4 | 11:01.08 | 2:28.64 | 49583 | 60746
5 | 13:29.72 | 3:45.37 | 60747 | 77658
6 | 17:15.34 | 6:39.28 | 77659 | 107611
7 | 23:54.62 | 3:52.46 | 107612 | 125057
8 | 27:47.33 | 2:17.24 | 125058 | 135356
9 | 30:04.57 | 2:00.38 | 135357 | 144394
10 | 32:05.20 | 3:46.55 | 144395 | 161399
11 | 35:52.00 | 3:42.32 | 161400 | 178081
12 | 39:34.32 | 2:56.16 | 178082 | 191297
13 | 42:30.48 | 2:37.34 | 191298 | 203106
14 | 45:08.07 | 1:04.08 | 203107 | 207914
15 | 46:12.15 | 7:21.51 | 207915 | 241040
16 | 53:33.66 | 2:53.56 | 241041 | 254071
17 | 56:27.47 | 3:54.17 | 254072 | 271638
18 | 60:21.64 | 2:44.43 | 271639 | 283981
19 | 63:06.32 | 3:43.48 | 283982 | 300754
20 | 66:50.05 | 5:28.19 | 300755 | 325373
21 | 72:18.24 | 1:49.03 | 325374 | 333551

Характеристики диапазона извлечения и сообщения об ошибках

Выбранный диапазон

Имя файла D:\My Music\Rip Lossless\Король и Шут - Страшные сказки\Король и Шут - Страшные сказки.wav

Пиковый уровень 100.0 %
Качество диапазона 99.9 %
CRC копии 185BBFB1
Копирование... OK

Ошибок не произошло

AccurateRip: сводка
Трек 1 нет в базе данных
Трек 2 нет в базе данных
Трек 3 нет в базе данных
Трек 4 нет в базе данных
Трек 5 нет в базе данных
Трек 6 нет в базе данных
Трек 7 нет в базе данных
Трек 8 нет в базе данных
Трек 9 нет в базе данных
Трек 10 нет в базе данных
Трек 11 нет в базе данных
Трек 12 нет в базе данных
Трек 13 нет в базе данных
Трек 14 нет в базе данных
Трек 15 нет в базе данных
Трек 16 нет в базе данных
Трек 17 нет в базе данных
Трек 18 нет в базе данных
Трек 19 нет в базе данных
Трек 20 нет в базе данных
Трек 21 нет в базе данных
Ни одного трека нет в базе AccurateRip

Конец отчёта



Live:



Продолжительность: 00:47:41

Треклист:
01. Ели мясо мужики (2:40)
02. Лесник (3:13)
03. Валет и дама (3:09)
04. Леший обиделся (2:28)
05. Дурак и молния (1:57)
06. Блуждают тени (2:17)
07. Вячеслав (2:01)
08. Песня мушкетеров (3:29)
09. Мария (3:03)
10. Мотоцикл (2:51)
11. Проказник скоморох (1:50)
12. Два вора и монета (2:45)
13. Шар голубой (1:23)
14. Отец и маски (2:57)
15. Охотник (2:44)
16. Пьеса (0:27)
17. Прыгну со скалы (3:17)
18. Сапоги (2:20)
19. Камнем по голове (2:51)
Михаил "Горшок" Горшенев - вокал
Андрей "Князь" Князев - вокал, акустическая гитара
Яков Цвиркунов - гитара, бэк-вокал
Александр Балунов - бас, бэк-вокал
Александр Щиголев - барабаны
Мария Нефедова - скрипка
Павел Сажинов - звук

Записано на концерте в клубе Спартак 16.06.1999 г.
Оператор записи - А.Миронов
Сведение - Е.Левин, П.Сажинов, студия Добролет
Мастеринг - Юрий Щербаков, студия Calypso

EAC extraction logfile from 9. April 2007, 11:33 for CD
Король и Шут / Ели Мясо Мужики

Used drive : PIONEER DVD-RW DVR-111L Adapter: 0 ID: 0
Read mode : Secure with NO C2, accurate stream, disable cache
Read offset correction : 48
Overread into Lead-In and Lead-Out : No

Used output format : Internal WAV Routines
44.100 Hz; 16 Bit; Stereo

Other options :
Fill up missing offset samples with silence : Yes
Delete leading and trailing silent blocks : No
Installed external ASPI interface

Range status and errors
Selected range
Filename D:\Korol i Shut\Ели Мясо Мужики\CDImage.wav

Peak level 98.8 %
Range quality 99.9 %
CRC 19636197
Copy OK

No errors occured

End of status report




Продолжительность: 00:52:22

Треклист:
01. Король и Шут (2:37)
02. Скоморох (1:42)
03. Садовник (2:55)
04. Злодей и шапка (2:09)
05. Веселые тролли (3:04)
06. Живая голова (2:18)
07. Охотник (2:24)
08. Шар голубой (1:17)
09. Рыбак (1:42)
10. Отец и маски (2:49)
11. Два друга (2:13)
12. Сапоги (2:22)
13. Камнем по голове (2:20)
14. Блуждают тени (2:05)
15. Холодное лето (2:37)
16. Дурак и молния (2:02)
17. Два вора и монета (2:11)
18. От женщин кругом голова (1:16)
19. Леший обиделся (2:25)
20. Любовь и пропеллер (2:42)
21. Мотоцикл (2:39)
22. Помогите мне (2:25)
23. Yellow submarine (2:07)
Отчёт EAC об извлечении, выполненном 27. января 2008, 14:52 для диска:
Король и Шут / Живая коллекция

Дисковод: HL-DT-STDVDRAM GSA-4084N Adapter: 1 ID: 0
Режим чтения: Достоверный (C2: нет, Точный поток: да, Отключение кэша: да)
Коррекция смещения при чтении: 667
Способность читать области Lead-in и Lead-out : Нет

Выходной формат: Внутренние WAV-операции
44.100 Гц; 16 бит; стерео

Другие параметры:
Заполнение пропущенных сэмплов тишиной : Да
Удаление блоков с тишиной в начале и конце : Нет
Встроенный Win32-интерфейс для Win NT/2000

Характеристики диапазона извлечения и сообщения об ошибках
Выбранный диапазон
Имя файла C:\Documents and Settings\!!!Vladimir\Рабочий стол\Король и Шут - Живая коллекция.wav

Пиковый уровень 100.0 %
Качество диапазона 100.0 %
CRC E51BAE7A
Копирование... OK

Ошибок не произошло

Конец отчёта




Продолжительность CD1: 00:50:28
Продолжительность CD2: 00:52:22

Треклист CD1:
01. Intro (2:56)
02. Лесник (3:48)
03. Волосокрад (2:48)
04. Ели мясо мужики (2:16)
05. Мёртвый анархист (4:06)
06. Защитник свиней (2:49)
07. Проклятый старый дом (4:30)
08. Он не знает, что такое жить! (2:20)
09. Песенка пьяного деда (2:18)
10. Смерть халдея (3:31)
11. Некромант (3:01)
12. Кузьма и барин (3:11)
13. Представляю я (2:29)
14. Мария (3:26)
15. Пьянка (2:33)
16. От женщин кругом голова (1:37)
17. Разборки из-за баб (2:50)

Треклист CD2:
01. Садовник (3:12)
02. Запрет отца (4:10)
03. Кто это всё придумал (3:08)
04. Мастер приглашает в гости (3:19)
05. Злодей и шапка (2:20)
06. Парень и леший (4:12)
07. Проказник скоморох (1:38)
08. Паника в селе (3:27)
09. Прыгну со скалы (4:15)
10. Скотный двор (2:21)
11. Шар голубой (1:53)
12. Гимн шута (4:22)
13. Похороны панка (2:34)
14. Воспоминание о былой любви (4:50)
15. Камнем по голове (4:30)
16. Outro (2:12)
Двойной концертный альбом, записанный на супер-концерте в Лужниках 18-19 октября 2002
"Мистерия звука" 2003

Михаил "Горшок" Горшенев - вокал
Андрей "Князь" Князев - вокал
Яков Цвиркунов - гитара
Александр "Ренегат" Леонтьев - гитара
Александр "Балу" Балунов - бас
Мария Нефедова - скрипка
Александр "Поручик" Щиголев - барабаны

Запись живого звука - Владислав Малахов, Анатолий Воробей
Сведение фонограмм - Алексей Самоделко
Фото - Валерий Кузецов, Александр Скрастин
Дизайн - Андрей Батура (Mystery Art)

Двойной концертный альбом, записанный на супер-концерте в Лужниках 18-19 октября 2002
"Мистерия звука" 2003

Михаил "Горшок" Горшенев - вокал
Андрей "Князь" Князев - вокал
Яков Цвиркунов - гитара
Александр "Ренегат" Леонтьев - гитара
Александр "Балу" Балунов - бас
Мария Нефедова - скрипка
Александр "Поручик" Щиголев - барабаны

Запись живого звука - Владислав Малахов, Анатолий Воробей
Сведение фонограмм - Алексей Самоделко
Фото - Валерий Кузецов, Александр Скрастин
Дизайн - Андрей Батура (Mystery Art)

Exact Audio Copy V0.99 prebeta 3 from 28. July 2007

Отчёт EAC об извлечении, выполненном 11. января 2008, 21:42

Король и Шут / Мёртвый Анархист (cd-2)

Дисковод: TOSHIBA ODD-DVD SDR1412T Adapter: 1 ID: 0

Режим чтения : Достоверность
Использование точного потока : Да
Отключение кэша аудио : Да
Использование указателей C2 : Нет

Коррекция смещения при чтении : 116
Способность читать области Lead-in и Lead-out : Нет
Заполнение пропущенных сэмплов тишиной : Да
Удаление блоков с тишиной в начале и конце : Нет
При вычислениях CRC использовались нулевые сэмплы : Да
Интерфейс : Установленный внешний ASPI-интерфейс

Выходной формат : Внутренние WAV-операции
Формат сэмплов : 44.100 Гц; 16 бит; стерео

TOC извлечённого CD

Трек | Старт | Длительность | Начальный сектор | Конечный сектор
---------------------------------------------------------------------
1 | 0:00.00 | 3:12.01 | 0 | 14400
2 | 3:12.01 | 4:09.40 | 14401 | 33115
3 | 7:21.41 | 3:07.49 | 33116 | 47189
4 | 10:29.15 | 3:19.13 | 47190 | 62127
5 | 13:48.28 | 2:19.62 | 62128 | 72614
6 | 16:08.15 | 4:11.72 | 72615 | 91511
7 | 20:20.12 | 1:38.14 | 91512 | 98875
8 | 21:58.26 | 3:26.56 | 98876 | 114381
9 | 25:25.07 | 4:14.67 | 114382 | 133498
10 | 29:39.74 | 2:20.52 | 133499 | 144050
11 | 32:00.51 | 1:52.53 | 144051 | 152503
12 | 33:53.29 | 4:22.37 | 152504 | 172190
13 | 38:15.66 | 2:33.71 | 172191 | 183736
14 | 40:49.62 | 4:50.25 | 183737 | 205511
15 | 45:40.12 | 4:30.15 | 205512 | 225776
16 | 50:10.27 | 2:12.10 | 225777 | 235686

Характеристики диапазона извлечения и сообщения об ошибках

Выбранный диапазон

Имя файла G:\CD2\Король и Шут - Мёртвый Анархист (cd-2).wav

Пиковый уровень 98.0 %
Качество диапазона 99.9 %
CRC копии 859E0750
Копирование... OK

Ошибок не произошло

Конец отчёта



Сольные альбомы:


Продолжительность: 00:26:14

Треклист:
01. Милое дело (2:03)
02. Жизнь (3:09)
03. Деньги (1:28)
04. Квартира (2:43)
05. Кировский Завод (2:08)
06. Долой гопоту! (2:26)
07. Я никому не нужен (1:46)
08. Прогулка (1:49)
09. Иван Факов (2:12)
10. Соловьи (3:19)
11. Розовая Вода (1:43)
12. Чойболсан (1:29)
Сольный альбом Михаила Горшенёва

Студия ДДТ
Запись, сведение, мастеринг: Н.Алмаев
Идея: М.Горшенев, А.Соя
Вокал: М.Горшенев
Барабаны: А.Щиголев
Гитара: А.Леонтьев
Бас: Д.Оганян
Бэки: Конвисер, Сантер, Тося, А.Федоров, С.Степанов, А.Скляренко, К.Поляков
Все песни группы: "Бригадный подряд"

Отчёт EAC об извлечении, выполненном 5. октября 2007, 23:37 для диска:
Горшок / Я - алкоголик, анархист

Дисковод: Optiarc DVD RW AD-5170A Adapter: 1 ID: 1
Режим чтения: Достоверный (C2: нет, Точный поток: да, Отключение кэша: да)
Коррекция смещения при чтении: 48
Способность читать области Lead-in и Lead-out : Нет

Выходной формат: Внутренние WAV-операции
44.100 Гц; 16 бит; стерео

Другие параметры:
Заполнение пропущенных сэмплов тишиной : Да
Удаление блоков с тишиной в начале и конце : Нет
Установленный внешний ASPI-интерфейс

Характеристики диапазона извлечения и сообщения об ошибках
Выбранный диапазон
Имя файла M:\Горшок - Я - алкоголик, анархист\Горшок - Я - алкоголик, анархист.wav

Пиковый уровень 99.3 %
Качество диапазона 99.9 %
CRC 55CF74CA
Копирование... OK

Ошибок не произошло

Конец отчёта



Продолжительность: 00:45:38

Треклист:
01. Стальные кандалы (2:33)
02. Карл (3:46)
03. Меригуан (4:11)
04. Пикник у бани (3:07)
05. Ломтик хлеба (2:19)
06. Ночная гостья (2:44)
07. Русалки (3:09)
08. Пес под окном (4:15)
09. Я добрый! (3:00)
10. Шутник и бабы (3:37)
11. Постой! (2:58)
12. Кривляка (3:49)
13. Летучий скелетик (3:16)
14. Не видели вы девушку? (2:55)
Сольный альбом Андрея Князева

Автор музыки и текстов, а также исполнитель Князев Андрей Сергеевич
Александр Леонтьев "Ренегат" - электрогитара, акустическая
Александр Щиголев "Поручик" - барабаны
Кудрявцев Владимир (Аквариум) - бас, акустический бас, контрабас
Ришко Дмитрий "Casper" - скрипка
Олег "Шар" (Аквариум) - перкуссия
Янсон Сергей (Хоронько оркестр) - аккордеон
Сажинов Павел - клавишные инструменты, клавесин
Белов Олег - фортепьяно
Чиграков Сергей "Чиж" - фортепиано в песне "Карл"
Худякова Юля - женский вокал

Звукорежиссер - Истомин Борис (Запись, сведение, мастеринг)
Запись произведена на студии "Мелодия", Санкт-Петербург
Обложка и рисунки - Князев Андрей, дизайн - Капен Оксана

Exact Audio Copy V0.99 prebeta 3 from 28. July 2007

Отчёт EAC об извлечении, выполненном 26. октября 2007, 20:18

Король и Шут (Князь) / Любовь Негодяя

Дисковод: PIONEER DVD-RW DVR-112D Adapter: 0 ID: 1

Режим чтения : Достоверность
Использование точного потока : Да
Отключение кэша аудио : Да
Использование указателей C2 : Нет

Коррекция смещения при чтении : 48
Способность читать области Lead-in и Lead-out : Нет
Заполнение пропущенных сэмплов тишиной : Да
Удаление блоков с тишиной в начале и конце : Нет
При вычислениях CRC использовались нулевые сэмплы : Нет
Интерфейс : Встроенный Win32-интерфейс для Win NT/2000

Выходной формат : Пользовательский кодировщик
Выбранный битрейт : 768 kBit/s
Качество : Высокий
Добавление ID3-тэга : Нет
Утилита сжатия : C:\Program Files\Exact Audio Copy\FLAC\FLAC.EXE
Дополнительные параметры : -6 -V -T "ARTIST=%a" -T "TITLE=%t" -T "ALBUM=%g" -T "DATE=%y" -T "TRACKNUMBER=%n" -T "GENRE=%m" -T "COMMENT=%e" %s -o %d

TOC извлечённого CD

Трек | Старт | Длительность | Начальный сектор | Конечный сектор
---------------------------------------------------------------------
1 | 0:00.00 | 2:32.50 | 0 | 11449
2 | 2:32.50 | 3:45.74 | 11450 | 28398
3 | 6:18.49 | 4:10.54 | 28399 | 47202
4 | 10:29.28 | 3:07.10 | 47203 | 61237
5 | 13:36.38 | 2:18.73 | 61238 | 71660
6 | 15:55.36 | 2:44.00 | 71661 | 83960
7 | 18:39.36 | 3:09.03 | 83961 | 98138
8 | 21:48.39 | 4:15.13 | 98139 | 117276
9 | 26:03.52 | 3:00.07 | 117277 | 130783
10 | 29:03.59 | 3:36.52 | 130784 | 147035
11 | 32:40.36 | 2:57.55 | 147036 | 160365
12 | 35:38.16 | 3:49.07 | 160366 | 177547
13 | 39:27.23 | 3:15.60 | 177548 | 192232
14 | 42:43.08 | 2:54.45 | 192233 | 205327

Характеристики диапазона извлечения и сообщения об ошибках

Выбранный диапазон

Имя файла G:\торент\Король и Шут (Князь) - Любовь Негодяя.wav

Пиковый уровень 100.0 %
Качество диапазона 99.8 %
CRC копии 84C67D73
Копирование... OK

Ошибок не произошло

AccurateRip: сводка
Трек 1 нет в базе данных
Трек 2 нет в базе данных
Трек 3 нет в базе данных
Трек 4 нет в базе данных
Трек 5 нет в базе данных
Трек 6 нет в базе данных
Трек 7 нет в базе данных
Трек 8 нет в базе данных
Трек 9 нет в базе данных
Трек 10 нет в базе данных
Трек 11 нет в базе данных
Трек 12 нет в базе данных
Трек 13 нет в базе данных
Трек 14 нет в базе данных
Ни одного трека нет в базе AccurateRip

Конец отчёта



Группа образовалась в 1988 году в Ленинграде, где в одной из школ одноклассники Михаил "Горшок" Горшенев, Александр "Поручик" Щиголев и Александр "Балу" Балунов приняли судьбоносное решение играть музыку.
Историческая встреча Андрея Князева с Михаилом Горшенёвым произошла несколькими годами позже в реставрационном училище Санкт-Петербурга. Там-то Андрей и познакомился с творчеством группы, носящей тогда название «Контора»: Горшок выступал как идейный вдохновитель и вокалист, Балу был гитаристом, Поручик - барабанщиком, в качестве инструментов используя пивную бочку, на басу играл Шурик Васильев.

Князю понравились записи, а Горшку понравились стихи Князя, на которые он сразу же стал писать музыку.

Состав группы стал следующим:

Михаил «Горшок» Горшенёв
Андрей «Князь» Князев
Александр «Балу» Балунов
Александр «Поручик» Щиголев

Название «Король и Шут» группа взяла в 1990 году. До этого времени на обсуждение музыкантами выносились такие названия как «Зарезанный одуванчик», «Армагеддон», «Апокалипсис», «Король Шутов».
Последний вариант и лёг в основу нынешнего названия группы.

В 1991-92 годах на полупрофессиональной студии Михаила Кольчугина были записаны первые несколько песен - "Мёртвая женщина", "Охотник", "Король и Шут", "В долине болот". В то же время состоялся первый эфир на радио в программе Анатолия Гуницкого.

В 1994 году был записан малотиражный неофициальный альбом "Будь как дома, путник", который вышел ограниченным тиражом только на кассетах и долгое время считался среди поклонников настоящим раритетом. Этот вариант альбома номерным не является.

Первое выступление группы на публике состоялось в 1992 году в школе ритма Игоря Голубева в здании старого рок-клуба на Рубинштейна, 13. 1993 год- первое выступление в питерском клубе "Там-там" Севы Гаккеля, а также в московском клубе "Sexton FOZD".

С 1993 по 1997 год "Король и Шут" выступали по питерским клубам "Там-там", "Полигон", "Гора", "Тен", "Лесопилка", "Рок-клуб", "Арт-клиника" и проч.

В 1995 году в группу пришёл гитарист Яков Цвиркунов.

В 1996 году была снята получасовая передача о "Короле и Шуте", которая неоднократно транслировалась в эфире 5-го канала. Большое спасибо за это Наташе Крусановой и её съёмочной группе! Результатом съёмок этой программы стали четыре малобюджетных клипа на песни "Дурак и молния", "Внезапная голова", "Садовник", "Блуждают тени".
В 1996 году вышел в свет первый номерной альбом "Камнем по голове", записанный на студии "Мелодия". В этом же и следующем годах "Король и шут" приняли участие в фестивале "Наполним небо добротой", который организовал Юрий Шевчук и "Театр ДДТ". Также группа выходила на сцену "Юбилейного" и ДК Горбунова, играя на фестивалях с такими группами как "TOY DOLLS", "THE STRANGLERS", "EXPLOITED"
1997 год стал годом выпуска второго альбома под названием "Король и Шут". Альбом состоял из песен, уже вошедших в альбом "Будь как дома, путник!", но более качественно записанных (в 2000 году альбому было возвращено его изначальное название). Осенью 1997 год в группу был приглашён звукорежиссёр - Павел Сажинов "П.Звук".
В 1998 году на студии "Мелодия" был записан очередной "Акустический альбом", высоко оценённый музыкальными критиками, которые отметили возросший профессионализм и редкую для панк-группы изобретательность в аранжировках. В записи принимали участие певица Марина Капуро и скрипачка Мария Бессонова. Мария Нефёдова (скрипка), которая так же участвовала в записи этого альбома, присоединилась к постоянному составу группы.

Летом 1998 года питерским режиссёром Борисом Деденёвым был снят первый настоящий клип на песню "Ели мясо мужики".

20 февраля 1999 группа впервые собрала дворец спорта "Юбилейный" в Петербурге. Концерт был организован компанией "SP-концерт." В 1999 году "Акустический альбом" был выпущен компанией "ОРТ-рекордз".

В 1999 году вышел в свет концертный альбом "Ели мясо мужики", записанный в клубе "Спартак" при содействии Панкера (Игоря Гудкова) и Алексея Деги по-прозвищу "Бесстрашный". Одновременно вышел и видео-вариант этого концерта. Из материалов этого выступления и концерта в ДС "Юбилейный" 10 октября 1999 г. был сделан клип на песню "Охотник".

В 2000 году вышел в свет очередной альбом "Герои и Злодеи". А в группе появился новый гитарист Александр "Ренегат" Леонтьев, привлекавшийся ранее в качестве сессионного музыканта.

Тогда состав группы «Король и Шут» стал следующим:

Андрей «Князь» Князев - вокал
Михаил «Горшок» Горшенёв - вокал
Александр «Балу» Балунов - бас-гитара
Яков Цвиркунов - гитара
Александр «Ренегат» Леонтьев - гитара
Мария Нефёдова - скрипка
Александр «Поручик» Щиголев - барабаны

Весной 2001 года группа с размахом отметила десятилетие. К юбилею «Король и Шут» выпустили сборник своих лучших песен - "Собрание", а также провели грандиозный тур с концертами во всех крупных городах европейской части России, Сибири и Белоруссии. В рамках тура группа выступила с концертами в ДС "Юбилейный" (С-Петербург) и на малой арене стадиона "Лужники" (Москва), добившись переаншлага.
Группа принимает участие во всех крупнейших музыкальных фестивалях России.
Осенью 2001 был записан альбом «Как в старой сказке». Сингл с этого альбома «Проклятый Старый Дом» на протяжении почти полугода занимал первое место в хит-параде «Нашего Радио» «Чартова Дюжина». Весной 2002 года группа получила премию «Поборол!» от «Нашего Радио» в номинации «Выбор слушателей» В том же апреле 2002-го по опросам журнала "Fuzz" группа «Король и Шут» была признана лучшей группой 2001 года. Ещё одну музыкальную премию - «Овация» - группа получила в мае 2002 года в номинации «Лучшая рок-группа года».

В октябре 2002 года вышел очередной альбом группы - «Жаль Нет Ружья», синглы с которого - «Мёртвый Анархист» и «Медведь» - долгое время оставались на верхних позициях теле- и радио хит-парадов.

В марте 2003 года компания "Мистерия звука" выпускает CD, MC, DVD и VHS- версии двухдневных концертов группы в Лужниках, прошедших с аншлагами 18-19 октября 2002 г.

15 ноября 2004 год - время выхода альбома «Бунт на корабле», все инструментальные партии которого записывались музыкантами «живьём», по принципу концертника - в один приём.

После выхода «Бунта на корабле» режиссёром Валерием Хаттиным (автором видео «Проклятый старый дом») был снят клип на песню «Месть Гарри».
2005 год заставил поклонников «Короля и Шута» серьёзно поволноваться. Поводом к этому послужили вышедшие практически одновременно сольные альбомы фронтменов группы - Андрея Князева и Михаила Горшенёва. Горшок записал пластинку с песнями легендарной питерской группы «Бригадный подряд». А в октябре 2005 года в продаже появился сольный альбом Андрея Князева (Князя) «Любовь негодяя». По словам музыкантов, их сольные работы - «всего лишь возможность самореализации и экспериментов вне их основного творчества - группы «Король и Шут»».

В конце 2005 - начале 2006 года в составе группы произошли серьезные изменения: из группы уходит скрипачка Мария Нефёдова, а следом за ней, по личным обстоятельствам, покидает коллектив Александр «Балу» Балунов, игравший в «Короле и Шуте» с момента основания. Также в связи с тяжёлой семейной ситуацией Александр «Ренегат» Леонтьев прекращает регулярную работу в группе.

На вакантное место скрипача группы был приглашен Дмитрий «Каспер» Ришко, а место бас-гитариста занял Дмитрий «Колбаса» Кандауров, которого через некоторое время сменил московский музыкант Сергей «Захар» Захаров.

Так сформировался нынешний состав группы:

Михаил «Горшок» Горшенёв - вокал
Андрей «Князь» Князев - вокал
Яков Цвиркунов - гитара
Дмитрий «Каспер» Ришко - скрипка
Сергей «Захар» Захаров - бас-гитара
Александр «Поручик» Щиголев - барабаны

В декабре 2006 года, в новом составе «Король и Шут» выпустили новый альбом «Продавец Кошмаров», который, по оценкам критиков, стал одним из лучших альбомов группы. Синглы «Марионетки» и «Ром» продержались в хит-параде «НАШЕго радио» «Чартова Дюжина» рекордные сроки!
Видеоклип на песню «Ром» музыканты снимали в немецком городке Бремен. Видеоматериалы, снятые во время сольного концерта «Короля и Шута» в питерском «Юбилейном», стали основой для концертного видео на песню «Марионетки».

Зимой 2007 года Князь и Горшок попробовали себя в новом качестве - новый, 2007 год, на НАШЕм радио начался со «страшной» сказки «Морозко», которую от имени автора и персонажей по ролям рассказали фронтмены группы. Тогда же было решено записать целый цикл подобных «страшилок», взятых из собраний русских народных сказаний и сказок братьев Гримм. И в августе 2007 года в свет вышел сборник «Страшные сказки», в который вошли 13 самых страшных и зловещих сказок из собраний русских народных преданий и сказок братьев Гримм. К работе над записью «сказочных» радиоспектаклей был привлечён театральный режиссёр, педагог Театрального института им. Щукина Андрей Левицкий.

В сентябре 2007 года произошли очередные изменения в составе «Короля и Шута». Павел Сажинов, бессменный звукорежиссер группы на протяжении более чем 10 лет, занял место за клавишными. На должность студийного звукорежиссера был приглашен Денис Неволин, а концертным звуком на сегодняшний день занимается Михаил Рахов.
В ноябре 2008 года «Король и Шут» выпустили новую пластинку - «Тень Клоуна», ставшую настоящим открытием для поклонников группы. Песни, названные на альбоме «тенями», перемежаются со стихами-«полутенями». А заглавный персонаж новой пластинки - клоун - стал полноправным участником больших концертных шоу группы.

Участниками группы в разное время были:

Шурик «Вася» Васильев - бас,
Димка «Рябчик» Рябченко - бас,
Гриша Кузьмин - бас,
Алексей Горшенёв - барабаны,
Мария Нефедова - скрипка,
Александр "Балу" Балунов - бас,
Александр "Ренегат" Леонтьев - гитара
Дмитрий "Колбаса" Кандауров - бас.


Как-то перебирая старые бумаги, Андрей Князев наткнулся на необычный конверт. Весь измятый, он лежал на самом дне стола. Открыв конверт, Андрей обнаружил странный манускрипт, почему-то написанный его почерком. Сам Князь не помнит, что он когда-то что-то подобное писал. Было бы большой ошибкой его не опубликовать, т.к. на бумаге напечатана правдивая история группы Король и Шут:

"Это было ещё в те времена, когда все люди были зайцами, а из космоса падали обледеневшие горшки с замечательными напитками. Несколько пучеглазых зайцев склонились над одним из таких горшков и, растопив замёрзший напиток, испробовали его. "Это именно то, чем я хочу питаться!» - воскликнул один. "Я хочу уметь готовить этот напиток, "- добавил другой. "А я хочу быть Горшком!"-улыбнулся третий заяц.

Через несколько миллионов лет все эти зайцы, один за другим, имели счастье снова зародиться, но природа наделила их иными формами. Теперь они выглядели так - шарик, овал и четыре палки. Воспоминания о чудном напитке сохранилось в их преобразовавшихся умах. И они стали стремиться к воплощению своих тайных желаний..." Далее иcтopия обрывается... Hа нескольких листах невозможно прочесть хотя бы одну букву. Но, к счастью, не все листы время смогло попортить - осталась пара довольно-таки разборчивых экземпляров:

Князев Андрей появился на свет в одну из февральских ночей под созвездием Водолея. Всё это время он улыбался. Впоследствии он это намертво забыл.

Когда на небе затряс гривой грозный лев, подхватив его рычание, материализовался Михаил Горшенёв и был таков.
В тот же период началась судьба Александра Балунова, который барахтался между двух степеней существования. Он мог стать приматом...

В одном из цехов какого-то полуразрушенного завода с конвейера сошла последняя партия черномазых пупсиков, но один из них внезапно ожил и более не помирал. Он назывался Щиголевым Александром.

Далее все те, о ком в данный момент идёт речь, длительное время ползали, пищали, писались, затем учились ходить, разговаривать, читать, писать, а также вынуждены были воспитываться, наказываться и не делать что-либо, что очень хотелось бы делать, но это нельзя было делать, лишь потому, что это не устраивало тех, кто когда-то не имел счастья отведать удивительного напитка. Но когда все они встретились, то появилась реальная возможность для воплощения в жизнь их идей и проектов, которые к тому времени уже начинали формироваться. Совместное творчество объединяло их, и открывались всё большие возможности для развития когда-то заложенной в них идеи. Образовался коллектив и получил название КОРОЛЬ И ШУТ. И телега поехала!

А ещё как-то, сравнительно недавно, к нам на точку, как зайчик на коленках, прибежал Яша. У него была проблема с передвижением.Все говорят, что он не умеет ходить, потому что у него слабые ноги, а я же так не считаю. У Яши, напротив, ноги сильные! А не ходит он из-за того, что у него ноги слишком ОСТРОКОНЕЧНЫЕ...

У нас на репетиционной точке Поручик разводил цветочки. Росли у него одни сорняки. И неожиданно среди них появилась тонкая веточка. Сначала все думали, что это бамбук, но, когда она подросла - стала изящной и даже могла издавать писк. Писклявую веточку назвали Машей. А рядышком с ней выросла скрипка из тыквенной семечки, оплодотворённой колорадским жуком.

Накануне Рождества кто-то откопал в снегу очки и дал объявление о находке в газеты. Тут-то и появился Ренегат. Ради того, чтобы вернуть себе очки, он даже сказал Лёше Ягоде из «Кукрыниксов»: «Прости, прощай!». Сперва он умел играть только с очками. Но потом овладел и гитарой.

Пытаясь прояснить содержимое рукописи А. Князева, кое-что к ней добавил М.Горшенёв:
"С удовольствием вспоминаю эти старые времена. Бывало, бежишь, орёшь, прыгаешь, руками машешь, тонешь в болоте, разговариваешь с покойниками - весело, а, главное, интересно..."

Вот такая совершенно ПРАВДИВАЯ история о группе Король и Шут.

«Король и Шут» (аббревиатура КиШ) — российская панк-рок-группа. Стиль «Короля и Шута» вдохновлён такими исполнителями хоррор-панка, как Misfits. Группа наиболее известна благодаря своим текстам, представляющим собой короткие сказки-«страшилки», обычно мистические или исторические. Сценический имидж группы включает в себя пугающий грим, согласно тематике их песен.

Первые годы
Группа основана в Ленинграде в 1988 году одноклассниками Михаилом Горшенёвым, Александром Балуновым и Александром Щиголевым под названием «Контора». В 1990 году Горшенёв познакомился с Андреем Князевым в ленинградском училище реставраторов и пригласил его в группу. Но когда начала разрабатываться новая концепция группы и сказочные тексты, то стало понятно, что нужно новое название. Были такие варианты, как «Зарезанный одуванчик», «Апокалипсис», но было решено остановиться на «Король Шутов» (позже стало «Король и Шут»).

Князев стал основным автором текстов «Короля и Шута», начал использовать в своих песнях сюжеты народных сказок и «ужасов», вводя в тексты образы сказочных персонажей: троллей, хоббитов, вампиров и т. п. Из-за этого тексты группы с самого начала значительно отличались от традиционной социально-протестной тематики текстов панк-групп и были близки к тематике хоррор-панка и фолк-рока.

С 1991 года группа впервые начала записывать отдельные песни на полупрофессиональной студии («Мёртвая женщина», «Охотник», «Король и Шут», «В долине болот»). В то же время состоялся первый эфир на радио в программе Анатолия Гуницкого. Малотиражный неофициальный альбом «Будь как дома, путник» был выпущен на магнитных кассетах ограниченным тиражом в 1994 и долгое время считался среди поклонников настоящим раритетом. Этот вариант альбома номерным не является.

Первое выступление группы на публике состоялось в 1992 году в школе ритма Игоря Голубева в здании старого рок-клуба на Рубинштейна, 13. 1993 год — первое выступление в питерском клубе «Там-там» Севы Гаккеля, а также в московском клубе «Sexton FOZD». С 1993 по 1997 год «Король и Шут» выступали по питерским клубам «Там-там», «Полигон», «Гора», «Тен», «Лесопилка», «Рок-клуб», «Арт-клиника» и проч.

В 1995 году в группу пришёл гитарист Яков Цвиркунов.

В 1996 году была снята получасовая передача о «Короле и Шуте» «Бела полоса», которая неоднократно транслировалась в эфире 5-го канала. Результатом съёмок этой программы стали четыре малобюджетных клипа на песни «Дурак и молния», «Внезапная голова», «Садовник», «Блуждают тени».

Начало популярности
Дебютный альбом «Камнем по голове» был записан и выпущен в 1996 году. На следующий год вышел второй альбом, «Король и Шут». В 1997 году группа принимает участие в записи концерта «Панк революция» вместе с такими командами, как: П.Н.Д., ЫШО-ЫШО, Пурген, Азъ, 4 Таракана, ЧУДО-ЮДО, Кранты и Непомнящий, Д.Н.К., Satan KLAUS, ТЕРРОР, Distemper, Франкель-Шпокель. Видеоверсия концерта выходит в 1998 году, а переиздаётся в 2008 на DVD. Но заметный успех к группе пришёл только в 1998 году с «Акустическим альбомом». Этот альбом отличался от панк-рока предыдущих в сторону большей мелодичности. На этом альбоме к группе присоединилась скрипачка Мария Нефёдова, что значительно повлияло на музыку КиШа, создав сильный уклон в сторону фолк-рока. С этого момента группа становится известной во всей России, в начале 1999 года она даёт сольный концерт в ГЦКЗ Олимпийский. По телевидению транслируется первый профессиональный клип группы на песню «Ели мясо мужики».

В 2000 году выходит очередной альбом «Герои и Злодеи», с которого в хит-парады попадает песня «Помнят с горечью Древляне». В поддержку альбома КиШ даёт тур по городам России и Украины, выступив в том числе в Зелёном театре парка Горького и на стадионе Юбилейный. В тот же год группа издает сборник «Собрание», а следом — один из своих самых успешных альбомов «Как в старой сказке». На этом, а также на следующем альбоме «Жаль, нет ружья» группа начинает заигрывать в текстах с темой анархии и панков. Однако из-за «несерьёзной» репутации группы и почти пародийной стилистики текстов многие российские панки не воспринимают группу всерьёз и даже нередко отрицают её жанровую принадлежность. Тем не менее, в молодёжной среде КиШ становятся почти культовой группой.

Король и Шут повторяет свой успех в хит-парадах — песни «Проклятый Старый Дом», «Мёртвый Анархист» и «Медведь» попадают на вершину «Чартовой дюжины», клип на «Проклятый старый дом», снятый режиссёром Валерием Хаттиным, транслирует MTV Россия. Группа получает целый ряд премий: премию «Поборолл», премию «Овация», премию журнала Fuzz. В 2002 Король и Шут — хедлайнер фестиваля Нашествие, и все последующие годы — фестиваля «Пятница, 13-е». В 2004 году издаётся видеоверсия фестиваля «Панки в городе 6», съёмки которого проводились в Лужниках 27 августа 2004, и в котором принимали участие группы: Король и Шут, Элизиум, 1,5 кг отличного пюре, НАИВ, Коллекция дней, Пурген.

Кризис начала 2000-х
В 2004 году выходит альбом «Бунт на корабле», три песни из которого посвящены тематике пиратов и мореплавания. Клип «Месть Гарри» транслируется по MTV Россия. На этом альбоме музыка группы испытала влияние альтернативы, доля фолк-музыки снизилась, что было неоднозначно воспринято слушателями. Группа начинает испытывать ряд проблем с составом: её покидают скрипачка Мария Нефёдова, басист Александр (Балу) Балунов, гитарист Александр (Ренегат) Леонтьев. В творчестве «Короля и Шута» происходит застой, популярность группы начинает снижаться. Во время паузы в 2005 году Горшок и Князь одновременно выпускают сольные альбомы, принесшие немало страхов и волнений фанатам. Альбом Горшенёва «Я алкоголик, я анархист», состоявший целиком из переработанных песен группы «Бригадный Подряд», выдержан в духе панк-рока, в то время как сольник Князева «Любовь Негодяя» тяготеет к фолк-року.

К 2006 году новый состав «Короля и Шута» окончательно укомплектовывается. Сергей Захаров становится новым бас-гитаристом, а Дмитрий «Каспер» Ришко — скрипачом. Группа решает обойтись без второго гитариста. В новом составе КиШ выпускает альбом «Продавец кошмаров», из которого песни «Марионетки», «Маска», «Ром», «Отражение» и «Джокер» вновь попадают в хит-парады на радио. В новогоднюю ночь 2007 года на «Нашем радио» музыкантами была рассказана сказка «Морозко», которую они перемешали песнями из альбома Продавец кошмаров.

15-летие группы
В 2007 году группа с туром, посвященным 15-летию коллектива, с успехом гастролировала по России. Во всех крупных городах дала фееричные двухчасовые концерты. Наиболее яркими, как всегда, стали концерты в Москве и Санкт-Петербурге. Во второй половине года группа начала плотную работу над новым альбомом. Звукорежиссёр Павел Сажинов перешёл в основной состав группы в качестве клавишника. Его место занял молодой специалист Денис Неволин. Также у КиШ появился постоянный фотограф — Виктория Виатрис. В августе свет увидел сборник «Страшные сказки», записанный Князем и Горшком, в который вошли 13 самых страшных и зловещих сказок из собраний русских народных преданий и «Сказок братьев Гримм». К работе над записью «сказочных» радиоспектаклей был привлечён театральный режиссёр, педагог Театрального института им. Щукина Андрей Левицкий.

Новые горизонты
18 ноября 2008 года вышел девятый студийный альбом «Тень клоуна», записанный окончательно укомплектовавшимся новым составом. Образ шута сменили зловещий клоун и его тень. Песни названы тенями, а тексты и стихи — полутенями. Сам альбом разделён на три смысловые части: первая — это полутень клоуна, вторая — полутень заговор в суде, третья — полутень зомби и один бонусный трек «Суфлёр», который положен на музыку песни «Смешной пистолет». Песня «13 рана», написанная Горшком на стихи Андрея Федечко из группы «Сонце-Хмари» поётся на суржике и посвящена Нестору Махно. Трек «Дагон» появился в ротации «Нашего радио» задолго до выхода самого альбома и занимал первое место в «Чартовой дюжине». Также в CDK МАИ 10 апреля 2009 года был записан новый концертный DVD. В 2009 году группа объявила о начале работы над ещё одним unplugged-альбомом, заявив, что в этот раз он будет действительно записан с применением только живых акустических инструментов, одновременно пообещав сохранить на нём весь «драйв» своих песен. Примерно тогда же вышел сингл «Танец злобного гения» в полу-электрической аранжировке, акустическая версия которого позже вошла в новый альбом. Группа поучаствовала в проекте «Соль», записав для него русскую народную песню «Коробейники». В 2010 году вышел второй трек из будущего альбома — «Фокусник».
В феврале 2010 года «Король и Шут» отыграли уникальный концерт в Праге. Накануне этого события чешская радиостанция RADIOBEAT представила слушателям специально подготовленную программу о творчестве группы, а поклонники «Короля и Шута» получили эксклюзивную возможность не только съездить на концерт в Чехию, но и провести со своими кумирами все выходные.
11 октября официально состоялся релиз нового альбома группы под названием «Театр демона», в этот же день на «Нашем радио» прошла радиопрезентация. В записи помимо основных музыкантов приняли участие некоторые приглашённые: Олег Шавкунов из «Аквариума» на перкуссии, Дмитрий Оганян из «Кукрыниксов» на виолончели, Сергей Стародубцев из «Кафе» на мандолине и dobro, Сергей «Ангел» Давыдов — акустическая гитара, Саша Суворов — губная гармошка, Стас Макаров — труба. Альбом был выпущен в концептуальном подарочном издании DG-Pack, оформленном в стиле начала XX века, с шестнадцатистраничным буклетом, фотографиями группы в предреволюционном стиле, текстами песен и художественными «досье» на каждого музыканта. Альбом создавался в экспериментальном для группы стиле арт-панк.
21 декабря «Король и Шут» закончили работу над видео для песни «Фокусник», вошедшую в «Театр демона». Режиссёром выступил Дмитрий Охотников, работавший с группой ранее и снявший клипы «Джокер» и «Танец злобного гения» (live). Съёмки «Фокусника» проходили в Санкт-Петербурге в начале октября, в старинном особняке Брусницыных. Специально для этого была подобрана настоящая антикварная мебель и аксессуары начала XX века. Музыканты, облачённые в старинные костюмы, сыграли посетителей закрытого салона, которые смотрят представление с участием злодея-фокусника, чью роль сыграл Гоша Куценко. В роли ассистентки фокусника снялась Алина Катран.
В 2011 году фронтмены группы Михаил Горшенев и Андрей Князев решили параллельно заняться реализацией своих сольных проектов. Князь представил новую сайд-группу «КняZz» и уже в июне выпустил сингл «Человек-Загадка» и альбом «Письмо из Трансильвании», тепло принятые слушателями. В это время Горшок в составе «Короля и Шута» работал над созданием мюзикла о Суини Тодде — маньяке-парикмахере. Альбом "Акт Первый. Праздник крови"вышел 5 декабря 2011 года на портале Thankyou.ru [14]. В поддержку мюзикла планируется выпустить неномерной спец-альбом группы — «Баллада о Суинни Тодде», работа над которым идёт в данный момент. Также в конце 2011 года музыканты начнут готовиться к 20-летнему юбилею группы, который планируется отпраздновать уже в начале 2012 года большими концертами в Москве и Санкт-Петербурге. 16 декабря 2011 года Андрей Князев официально объявил о выходе из состава группы «Король и Шут».

Музыка
Стили музыки разных альбомов кардинально различались, варьируясь по звучанию от классического русского рока («Камнем по голове»), элементов панк-рока («Король и Шут») и хардкор-панка («Как в старой сказке», «Бунт на корабле») до акустических фолк-роковых периодов («Акустический альбом»). Стилистика и музыка КиШ похожа на хоррор-панк группы, в особенности Misfits. Также отмечают влияние фолк-рока и фолк-метала. Сам коллектив часто позиционирует себя как панк-рок группа.

Премия «Лучшая группа 2001 года» по версии журнала «Fuzz»
Премия «Поборол!» от «Нашего Радио» в номинации «Выбор слушателей» — 2002 год
Премия «Овация» в номинации «Лучшая рок-группа» — 2002 год [1]
Премия «Выбор интернета», Чартова Дюжина — 2008 год
Премия «Лучший клип 2008» по версии журнала «Fuzz» за клип «Ром»
Премия Rock Alternative Music Prize (RAMP) в номинации «Respect Ruнета» — 2008 год
Премия «Лучшая песня десятилетия» по версии «Нашего Радио» за песню «Прыгну Со Скалы»
Премия «Лучший бас-гитарист 2007-2008» - удостоился Сергей Захаров, по версии журнала "Петербургский музыкант".
Премия «Лучший исполнитель на смычковых инструментах 2007-2008» - стал Дмитрий «Каспер» Ришко, по версии журнала "Петербургский музыкант".
Премия «Лучший видеоклип 2007-2008» - за видео на песню «Ром», по версии журнала "Петербургский музыкант"

Участники:

Михаил Горшенёв (Горшок) — вокал
Александр Щиголев (Поручик) — барабаны
Яков Цвиркунов (Яша) — гитара
Дмитрий Ришко (Каспер) — скрипка
Сергей Захаров (Захар) — бас-гитара
Павел Сажинов (Паша) — клавиши



Бывшие участники:

Андрей Князев (Князь) — вокал
Александр Балунов (Балу) — бас-гитара
Александр Леонтьев (Ренегат) — гитара
Шурик Васильев (Вася) — барабаны
Дмитрий Рябченко (Рябчик) — бас-гитара
Дмитрий Кандауров (Колбаса) — бас-гитара
Григорий Кузьмин — бас-гитара
Алексей Горшенёв (Ягода) — барабаны
Мария Нефёдова (Маша) — скрипка

С 1989 года история группы базировалась на творческом тандеме и ярких, контрастных имиджах двух её основателей и вокалистов – Андрея Князева и Михаила Горшенева, которые сформировали уникальную творческую и идеологическую концепции «Короля и Шута», а так же весь музыкальный арсенал. В 2011 году векторы развития разошлись – Горшенев увлекся театральным мюзиклом, а Князев собрал собственную группу «КняZz». Учитывая степень самоотдачи, творческие разногласия и напряженные графики, совмещать работу в обоих проектах стало невозможно, и Князев принял решение об уходе из «Короля и Шута».
Группа «КняZz» мощно стартовала летом 2011 года – оба сингла, «Человек-Загадка» и «В Пасти Темных Улиц» взорвали эфир «НАШЕго Радио» и удержали первое место хит-парада «Чартова Дюжина». Осенью состоялся релиз дебютного альбома «Письмо из Трансильвании», получившего шквал положительных рецензий, сразу после которого группа отправилась в гастрольный тур по стране. В концертную программу, помимо материала группы «КняZz» входят хиты «Короля и Шута», написанные Андреем Князевым – «Со скалы», «Кукла Колдуна», «Ром», «Гимн Шута» и др. На 2012 год запланированы концерты по России и ближнему зарубежью, а также запись и выход второго альбома.
Андрей Князев: «Это и желанное, и вынужденное решение. Сольную работу я вел на протяжении всей истории «Короля и Шута» – в 1999 году вышел «Акустический альбом», в 2005 – «Любовь негодяя». В приоритете всегда была творческая деятельность в «КиШе». Тем не менее, фактор двух идейных лидеров требовал постоянных, обоюдных компромиссов. Понимая, что природа компромиссов не может быть вечной, я делил творчество группы на свое и «КиШовское». В конце 2010 года я создал группу «КняZz». Идея о совмещении работы в двух коллективах со временем отпала, ввиду фактора увлечения участников группы «КиШ» театром и моей стопроцентной занятостью в группе «КняZz». Необходимо было сделать выбор и внести ясность, чтобы двигаться дальше. Я являюсь учредителем бренда «Король и Шут», создателем логотипа, обложек, иллюстраций и автором всех текстов, но с этого момента я официально не являюсь участником группы. Не гастролирую с коллективом и не принимаю участие в творческом процессе. В своей группе планирую продолжать начатые идеи и традиции, а так же, развивать новые. Главным, по-прежнему, остается музыка – помните об этом».

Источник
   
Торрент: Зарегистрирован [29 май 2012, 20:01] Rock Скачать торрент Магнет ссылка
Скачать торрент
[ Размер 46.55 КБ / Просмотров 441 ]
Статус:
 
.torrent скачан: 0 раз
Размер: 7.34 ГБ (7 882 360 668 байт)
   
 
 
Цитата

Вернуться в Rock

Кто сейчас на конференции

Сейчас эту тему просматривают: нет зарегистрированных пользователей и гости: 1