Русский бунт (Александр Прошкин) (Драма, Исторический) (1999) DVDRip

 Статистика раздачи 
Размер: 2.06 ГБ   |  Зарегистрирован: 29 май 2012, 18:39   |   .torrent скачан: 0 раз
Сидеров: 0  [ 0 байт/сек ]     Личеров: 1  [ 0 байт/сек ]  
  
Аватара пользователя
Модератор Видео
Модератор Видео
Автор темы
Раздал: 1.98 ТБ
Скачал: 8.02 ГБ
Ратио: 252.924
Сообщения: 158
Стаж: 5 лет 1 месяц 26 дней
Откуда: склероз

Русское название: Русский бунт
Оригинальное название: Russkiy bunt
Год выхода: 1999
Режиссер: Александр Прошкин
В ролях: Матеуш Даменцки, Каролина Грушка, Владимир Машков, Сергей Маковецкий, Владимир Ильин, Юрий Беляев, Наталья Егорова, Юрий Кузнецов, Ольга Антонова, Юозас Будрайтис
Роли дублировали: Марат Башаров, Чулпан Хаматова
Страна производства: Россия, Франция
Продолжительность: 02:03:41
Продюсер: Игорь Бортников, Виталий Кошман, Игорь Толстунов
Сценарий: Галина Арбузова, Станислав Говорухин, Владимир Железников
Премьера в мире: 12 февраля 2000
Жанр: драма, мелодрама, Исторический

Описание: Конец XVIII века. Царствование Екатерины II. В глубокой российской провинции, среди бескрайних уральских степей беглый каторжник Емельян Пугачев объявил себя императором Петром III. Под знамена самозванца встали отряды казаков, беглые крепостные и многие лихие люди. В это смутное время в богом забытой Белогорской крепости юный офицер Петр Гринев встречает свою первую любовь Машеньку, дочь капитана Миронова.Безоглядно увлеченные друг другом влюбленные не желали замечать знамений грядущей беды. Они не знали, что вскоре им предстоят тяжкие испытания. Они не могли представить, каким причудливым образом их судьбы переплетутся с судьбой самозваного царя и каких невероятных усилий им будет стоить сохранить свои жизни и чувства в кровавом хаосе беспощадного русского бунта.

Рейтинг IMDB:
Рейтинг Kinopoisk:
Сэмпл

Релиз группа:

Качество видео: DVDRip
Формат: AVI
Видео: Xvid, 720х384, ~1 921 Kbps, 25.000 fps
Аудио: AC3 6ch, (Front: L C R, Side: L R, LFE), 448 Kbps, 48.0 KHz

Код: Выделить всё
Format : AVI
Format/Info : Audio Video Interleave
Format profile : OpenDML
File size : 2.06 GiB
Duration : 2h 3mn
Overall bit rate : 2 381 Kbps
Director : CrimeanFox
Writing application : VirtualDubMod 1.5.10.2 (build 2540/release)
Writing library : VirtualDub build 32842/release

Video
ID : 0
Format : MPEG-4 Visual
Format profile : Advanced [email protected]
Format settings, BVOP : 2
Format settings, QPel : No
Format settings, GMC : No warppoints
Format settings, Matrix : Default (H.263)
Muxing mode : Packed bitstream
Codec ID : XVID
Codec ID/Hint : XviD
Duration : 2h 3mn
Bit rate : 1 921 Kbps
Width : 720 pixels
Height : 384 pixels
Display aspect ratio : 1.875
Frame rate : 25.000 fps
Color space : YUV
Chroma subsampling : 4:2:0
Bit depth : 8 bits
Scan type : Progressive
Compression mode : Lossy
Bits/(Pixel*Frame) : 0.278
Stream size : 1.66 GiB (81%)
Writing library : XviD 64

Audio
ID : 1
Format : AC-3
Format/Info : Audio Coding 3
Mode extension : CM (complete main)
Codec ID : 2000
Duration : 2h 3mn
Bit rate mode : Constant
Bit rate : 448 Kbps
Channel(s) : 6 channels
Channel positions : Front: L C R, Side: L R, LFE
Sampling rate : 48.0 KHz
Bit depth : 16 bits
Compression mode : Lossy
Stream size : 396 MiB (19%)
Alignment : Aligned on interleaves
Interleave, duration : 40 ms (1.00 video frame)
Interleave, preload duration : 512 ms


   
Торрент: Зарегистрирован [29 май 2012, 18:39] Скачать торрент Магнет ссылка
Скачать торрент
[ Размер 10.47 КБ / Просмотров 102 ]
Статус:
Проверен
 
.torrent скачан: 0 раз
Размер: 2.06 ГБ (2 209 239 342 байт)
   
 
 
Исправил релиз - отпишись в ЛС со ссылкой на него
Цитата

Вернуться в Наше кино (Rips)

Кто сейчас на конференции

Сейчас эту тему просматривают: нет зарегистрированных пользователей и гости: 1