Все о Windows 8. Обучающий видеокурс (2012) [2012 г., обучающее видео, PCRec ]

 Статистика раздачи 
Размер: 181.71 МБ   |  Зарегистрирован: 29 май 2012, 17:30   |   .torrent скачан: 2 раз
Сидеров: 0  [ 0 байт/сек ]     Личеров: 132  [ 0 байт/сек ]  
  
Аватара пользователя
Администратор
Администратор
Автор темы
Раздал: 24.47 ТБ
Скачал: 388.83 ГБ
Ратио: 145.334
Сообщения: 5369
Стаж: 7 лет 1 месяц 9 дней
Откуда: Lithuania

Все о Windows 8. Обучающий видеокурс (2012)




Год выпуска: 2012
Жанр: обучающее видео
Продолжительность: 00.30.31

Описание: Данный видеокурс Windows 8 познакомит Вас с функциями новейшей операционной системой и увидеть улучшенную графическую оболочку, скорость работы и защищенность системы в сравнении с предыдущей версией. Видеокурс Windows 8 сможет помочь любому пользователю, даже самому неопытному, освоить принцип работы ОС.

Качество видео: PCRec
Продолжительность: 00:30:22 (суммарно)
Видеокодек: AVC
Битрейт видео: ~665 kbps
Размер кадра: 1280x720
Аудиокодек: AAC
Битрейт аудио: 192 Kbps

Автор: TeachVideo
Издательство: TeachVideo
Год издания: 2012
Язык: русский
Формат: mp4
General
Полное имя : D:\VIDEO\Всё о Windows 8. Обучающий видеокурс (2012)\0001.mp4
Формат : MPEG-4
Профиль формата : Base Media / Version 2
Идентификатор кодека : mp42
Размер файла : 12.5 MiB
Продолжительность : 2mn 1s
Общий поток : 860 Kbps
Дата кодирования : UTC 2012-03-29 17:57:32
Дата пометки : UTC 2012-03-29 17:57:32
©TIM : 00:00:00:00
©TSC : 25
©TSZ : 1

Video
Идентификатор : 1
Формат : AVC
Формат/Информация : Advanced Video Codec
Профиль формата : [email protected]
Параметр CABAC формата : Yes
Параметр ReFrames формата : 3 frames
Параметр GOP формата : M=4, N=33
Идентификатор кодека : avc1
Идентификатор кодека/Информация : Advanced Video Coding
Продолжительность : 2mn 1s
Вид битрейта : Constant
Битрейт : 665 Kbps
Номинальный битрейт : 4 000 Kbps
Ширина : 1 280 pixels
Высота : 720 pixels
Соотношение сторон : 16:9
Режим частоты кадров : Constant
Частота кадров : 25.000 fps
Стандарт вещания : PAL
Цветовое пространство : YUV
Субдискретизация насыщенности : 4:2:0
Битовая глубина : 8 bits
Тип развёртки : Progressive
Бит/(Пиксели*Кадры) : 0.029
Размер потока : 9.67 MiB (77%)
Язык : English
Дата кодирования : UTC 2012-03-29 17:57:32
Дата пометки : UTC 2012-03-29 17:57:32

Audio
Идентификатор : 2
Формат : AAC
Формат/Информация : Advanced Audio Codec
Профиль формата : LC
Идентификатор кодека : 40
Продолжительность : 2mn 1s
Вид битрейта : Variable
Битрейт : 192 Kbps
Максимальный битрейт : 236 Kbps
Каналы : 2 channels
Расположение каналов : Front: L R
Частота : 48.0 KHz
Метод сжатия : Lossy
Размер потока : 2.75 MiB (22%)
Язык : English
Дата кодирования : UTC 2012-03-29 17:57:32
Дата пометки : UTC 2012-03-29 17:57:32
Material_Duration : 122005
Material_StreamSize : 2888095



   
Торрент: Зарегистрирован [29 май 2012, 17:30] Скачать торрент Магнет ссылка
Скачать торрент
[ Размер 15.25 КБ / Просмотров 240 ]
Статус:
Проверен
 
.torrent скачан: 2 раз
Размер: 181.71 МБ (190 541 004 байт)
   
 
 
Цитата
Аватара пользователя
Раздал: 19.05 ГБ
Скачал: 13.93 ГБ
Ратио: 1.628
Сообщения: 13
Стаж: 4 года 9 месяцев 26 дней
СообщениеДобавлено: 26 фев 2013, 22:15
все это хорошо если бы еще сенсорный экран в придачу а так пустой звон!!! :lol:
Цитата
Аватара пользователя
Главный редактор
Главный редактор
Я на сайте
Раздал: 10.09 ТБ
Скачал: 1.76 ТБ
Ратио: 6.148
Сообщения: 3641
Стаж: 7 лет 1 месяц 22 дня
Откуда: Санкт-Петербург
СообщениеДобавлено: 27 фев 2013, 00:02
ШАЛОМ писал(а):

если бы еще сенсорный экран в придачу


Ищущий да обрящет.... ;)
Цитата
Аватара пользователя
Раздал: 19.05 ГБ
Скачал: 13.93 ГБ
Ратио: 1.628
Сообщения: 13
Стаж: 4 года 9 месяцев 26 дней
СообщениеДобавлено: 28 фев 2013, 23:52
i926 писал(а):


Ищущий да обрящет.... ;)

Что то мне это напоминает!!!! Не клон ли это великого сенсея!!!
Цитата

Вернуться в Microsoft ОС и серверные программы

Кто сейчас на конференции

Сейчас эту тему просматривают: нет зарегистрированных пользователей и гости: 1