Солнечные бури. Угроза планете Земля / BBC Horizon: Solar Storms. The Threat to Planet Earth [2012, документальный, HDTV 720p]

 Статистика раздачи 
Размер: 1.52 ГБ   |  Зарегистрирован: 13 янв 2018, 20:39   |   .torrent скачан: 0 раз
Сидеров: 0  [ 0 байт/сек ]     Личеров: 0  [ 0 байт/сек ]  
  
Аватара пользователя
Автор темы
Раздал: 0 байт
Скачал: 0 байт
Ратио: Inf.
Сообщения: 19497
Стаж: 6 лет 11 месяцев 9 дней

Солнечные бури. Угроза планете Земля / BBC Horizon: Solar Storms. The Threat to Planet Earth
Год выпуска: 2012
Страна: Великобритания
Жанр: документальный
Продолжительность: 00:51:08
Перевод: Профессиональный (двухголосый закадровый)
Доп. инфо о переводе: студия "Позитив"
Русские субтитры: нет
Описание: Во Вселенной миллиарды звезд, но только одна звезда доминирует в нашем космическом пространстве – Солнце. Она настолько велика, что может поместить в себе миллион таких планет как Земля. Она настолько мощна, что каждую секунду выбрасывает в пространство столько энергии, сколько ее высвободится от миллиарда мегатонных водородных бомб. Солнце – массивный двигатель, который заводит нашу Солнечную систему, делая возможным жизнь на Земле. Но так же оно опасно своими штормами и взрывами, которые могут навредить нашей планете...
Тип релиза: HDTV 720p
Контейнер: MKV
Видео: AVC, 1280x720 (16:9), 25.000 fps, 3965 Kbps
Аудио: Mp3, 128 kbps, 44.1 KHz, 2 channels
General
Unique ID : 218139800927919471966722225505602914048 (0xA41C328D3217F190923160EA9FE84700)
Complete name : D:\Видео\BBC.Horizon.2012.Solar.Storms.The.Threat.to.Planet.Earth.HDTV.x264.mkv
Format : Matroska
Format version : Version 4 / Version 2
File size : 1.52 GiB
Duration : 51mn 8s
Overall bit rate : 4 262 Kbps
Encoded date : UTC 2013-02-12 16:28:35
Writing application : mkvmerge v6.0.0 ('Coming Up For Air') built on Jan 20 2013 09:52:00
Writing library : libebml v1.3.0 + libmatroska v1.4.0
Video #1
ID : 1
Format : AVC
Format/Info : Advanced Video Codec
Format profile : [email protected]
Format settings, CABAC : Yes
Format settings, ReFrames : 6 frames
Codec ID : V_MPEG4/ISO/AVC
Duration : 51mn 8s
Bit rate : 4 049 Kbps
Width : 1 280 pixels
Height : 720 pixels
Display aspect ratio : 16:9
Frame rate mode : Constant
Frame rate : 25.000 fps
Color space : YUV
Chroma subsampling : 4:2:0
Bit depth : 8 bits
Scan type : Progressive
Bits/(Pixel*Frame) : 0.176
Stream size : 1.45 GiB (95%)
Language : English
Default : Yes
Forced : No
Audio #2
ID : 2
Format : MPEG Audio
Format version : Version 1
Format profile : Layer 3
Mode : Joint stereo
Mode extension : MS Stereo
Codec ID : A_MPEG/L3
Codec ID/Hint : MP3
Duration : 51mn 8s
Bit rate mode : Constant
Bit rate : 128 Kbps
Channel(s) : 2 channels
Sampling rate : 44.1 KHz
Compression mode : Lossy
Stream size : 46.8 MiB (3%)
Default : Yes
Forced : No
   
Торрент: Зарегистрирован [13 янв 2018, 20:39] Скачать торрент Магнет ссылка
Скачать торрент
[ Размер 15.83 КБ / Просмотров 0 ]
Статус:
Проверен
 
.torrent скачан: 0 раз
Размер: 1.52 ГБ (1 634 506 284 байт)
   
 
 
Цитата
  • Похожие торренты
    Ответы
    Просмотры
    Последнее сообщение

Вернуться в National Geographic

Кто сейчас на конференции

Сейчас эту тему просматривают: нет зарегистрированных пользователей и гости: 1