(Blues, Rock, Blues Rock, Texas Blues, Electric Blues) Stevie Ray Vaughan & Double Trouble - Original Album Classics (5CD Box Set) - 2013 (Epic Records 88883719842 USA), FLAC (image+.cue), lossless

 Статистика раздачи 
Размер: 1.95 ГБ   |  Зарегистрирован: 31 мар 2018, 15:23   |   .torrent скачан: 1 раз
Сидеров: 6  [ 0 байт/сек ]     Личеров: 2  [ 0 байт/сек ]  
  
Аватара пользователя
 
Раздал: 0 байт
Скачал: 0 байт
Ратио: Inf.
Сообщения: 182312
Стаж: 7 лет 7 месяцев 27 дней
Откуда: Rossiya

Stevie Ray Vaughan & Double Trouble - Original Album Classics
Жанр: Blues, Rock, Blues Rock, Texas Blues, Electric Blues
Страна-производитель диска: USA
Год издания диска: 2013
Издатель (лейбл): Epic Records
Номер по каталогу: 88883719842
Страна: USA
Аудио кодек: FLAC (*.flac)
Тип рипа: image+.cue
Битрейт аудио: lossless
Продолжительность: 04:40:26
Источник (релизер): allekkss48
Наличие сканов в содержимом раздачи:
Треклист:
#7701. Love Struck Baby 02:23
02. Pride And Joy 03:40
03. Texas Flood 05:21
04. Tell Me 02:48
05. Testify 03:22
06. Rude Mood 04:40
07. Mary Had A Little Lamb 02:47
08. Dirty Pool 05:02
09. I'm Cryin' 03:47
10. Lenny 05:07
Bonus Tracks:
11. SRV Speaks 00:37
12. Tin Pan Alley (aka Roughest Place In Town) 07:42
13. Testify (Live) 03:54
14. Mary Had A Little Lamb (Live) 03:31
15. Wham! (Live) 04:20
Код: Выделить всё
Exact Audio Copy V1.0 beta 3 from 29. August 2011
EAC extraction logfile from 2. July 2013, 18:57
Stevie Ray Vaughan And Double Trouble / Texas Flood
Used drive : PLEXTOR BD-R PX-B950SA Adapter: 6 ID: 0
Read mode : Secure
Utilize accurate stream : Yes
Defeat audio cache : Yes
Make use of C2 pointers : No
Read offset correction : 6
Overread into Lead-In and Lead-Out : No
Fill up missing offset samples with silence : Yes
Delete leading and trailing silent blocks : No
Null samples used in CRC calculations : Yes
Used interface : Native Win32 interface for Win NT & 2000
Used output format : Internal WAV Routines
Sample format : 44.100 Hz; 16 Bit; Stereo
TOC of the extracted CD
 Track | Start | Length | Start sector | End sector
 ---------------------------------------------------------
 1 | 0:00.00 | 2:23.57 | 0 | 10781
 2 | 2:23.57 | 3:40.15 | 10782 | 27296
 3 | 6:03.72 | 5:21.33 | 27297 | 51404
 4 | 11:25.30 | 2:48.67 | 51405 | 64071
 5 | 14:14.22 | 3:22.23 | 64072 | 79244
 6 | 17:36.45 | 4:40.12 | 79245 | 100256
 7 | 22:16.57 | 2:47.20 | 100257 | 112801
 8 | 25:04.02 | 5:02.33 | 112802 | 135484
 9 | 30:06.35 | 3:47.12 | 135485 | 152521
 10 | 33:53.47 | 5:07.13 | 152522 | 175559
 11 | 39:00.60 | 0:37.27 | 175560 | 178361
 12 | 39:38.12 | 7:42.25 | 178362 | 213036
 13 | 47:20.37 | 3:54.03 | 213037 | 230589
 14 | 51:14.40 | 3:31.55 | 230590 | 246469
 15 | 54:46.20 | 4:20.10 | 246470 | 265979
Range status and errors
Selected range
 Filename C:\Users\Meijin\Desktop\Lossless Galaxy ALLexxess\Stevie Ray Vaughan\2013 Original Album Classics (5CD Box Set Epic Records)\1983 Texas Flood\Stevie Ray Vaughan And Double Trouble - Texas Flood.wav
 Peak level 100.0 %
 Extraction speed 8.0 X
 Range quality 99.9 %
 Test CRC 54A16F04
 Copy CRC 54A16F04
 Copy OK
No errors occurred
AccurateRip summary
Track 1 accurately ripped (confidence 2) [6201A0C7] (AR v1)
Track 2 accurately ripped (confidence 2) [2260C0FF] (AR v1)
Track 3 accurately ripped (confidence 2) [5FA18B23] (AR v1)
Track 4 accurately ripped (confidence 2) [37F62E92] (AR v1)
Track 5 accurately ripped (confidence 2) [630D32CB] (AR v1)
Track 6 accurately ripped (confidence 2) [8237B1ED] (AR v1)
Track 7 accurately ripped (confidence 2) [0F1361B1] (AR v1)
Track 8 accurately ripped (confidence 2) [9580B90D] (AR v1)
Track 9 accurately ripped (confidence 2) [5538FE79] (AR v1)
Track 10 accurately ripped (confidence 2) [58234898] (AR v1)
Track 11 accurately ripped (confidence 2) [E8AA87F3] (AR v1)
Track 12 accurately ripped (confidence 2) [385D4508] (AR v1)
Track 13 accurately ripped (confidence 2) [B6A0DEE1] (AR v1)
Track 14 accurately ripped (confidence 2) [091A5E5D] (AR v1)
Track 15 accurately ripped (confidence 2) [795C91A9] (AR v1)
All tracks accurately ripped
End of status report
==== Log checksum 4E58237A417EFC11C509763EE695DAC60B3FE7A6170E003A733F40FDE6779D5B ====
Код: Выделить всё
REM GENRE "Blues Rock"
REM DATE 1983
REM DISCID D30DDA0F
REM COMMENT "ExactAudioCopy v1.0b3"
PERFORMER "Stevie Ray Vaughan And Double Trouble"
TITLE "Texas Flood"
FILE "Stevie Ray Vaughan And Double Trouble - Texas Flood.flac" WAVE
  TRACK 01 AUDIO
    TITLE "Love Struck Baby"
    PERFORMER "Stevie Ray Vaughan And Double Trouble"
    INDEX 01 00:00:00
  TRACK 02 AUDIO
    TITLE "Pride And Joy"
    PERFORMER "Stevie Ray Vaughan And Double Trouble"
    INDEX 00 02:21:40
    INDEX 01 02:23:57
  TRACK 03 AUDIO
    TITLE "Texas Flood"
    PERFORMER "Stevie Ray Vaughan And Double Trouble"
    INDEX 00 06:03:10
    INDEX 01 06:03:72
  TRACK 04 AUDIO
    TITLE "Tell Me"
    PERFORMER "Stevie Ray Vaughan And Double Trouble"
    INDEX 00 11:24:47
    INDEX 01 11:25:30
  TRACK 05 AUDIO
    TITLE "Testify"
    PERFORMER "Stevie Ray Vaughan And Double Trouble"
    INDEX 00 14:12:45
    INDEX 01 14:14:22
  TRACK 06 AUDIO
    TITLE "Rude Mood"
    PERFORMER "Stevie Ray Vaughan And Double Trouble"
    INDEX 00 17:35:55
    INDEX 01 17:36:45
  TRACK 07 AUDIO
    TITLE "Mary Had A Little Lamb"
    PERFORMER "Stevie Ray Vaughan And Double Trouble"
    INDEX 00 22:15:60
    INDEX 01 22:16:57
  TRACK 08 AUDIO
    TITLE "Dirty Pool"
    PERFORMER "Stevie Ray Vaughan And Double Trouble"
    INDEX 00 25:03:37
    INDEX 01 25:04:02
  TRACK 09 AUDIO
    TITLE "I'm Cryin'"
    PERFORMER "Stevie Ray Vaughan And Double Trouble"
    INDEX 00 30:04:35
    INDEX 01 30:06:35
  TRACK 10 AUDIO
    TITLE "Lenny"
    PERFORMER "Stevie Ray Vaughan And Double Trouble"
    INDEX 00 33:49:65
    INDEX 01 33:53:47
  TRACK 11 AUDIO
    TITLE "SRV Speaks / Bonus Track"
    PERFORMER "Stevie Ray Vaughan And Double Trouble"
    INDEX 00 38:50:60
    INDEX 01 39:00:60
  TRACK 12 AUDIO
    TITLE "Tin Pan Alley (aka Roughest Place In Town) / Bonus Track"
    PERFORMER "Stevie Ray Vaughan And Double Trouble"
    INDEX 01 39:38:12
  TRACK 13 AUDIO
    TITLE "Testify (Live) / Bonus Track"
    PERFORMER "Stevie Ray Vaughan And Double Trouble"
    INDEX 00 47:15:40
    INDEX 01 47:20:37
  TRACK 14 AUDIO
    TITLE "Mary Had A Little Lamb (Live) / Bonus Track"
    PERFORMER "Stevie Ray Vaughan And Double Trouble"
    INDEX 01 51:14:40
  TRACK 15 AUDIO
    TITLE "Wham! (Live) / Bonus Track"
    PERFORMER "Stevie Ray Vaughan And Double Trouble"
    INDEX 01 54:46:20
Код: Выделить всё
-----------------------
DON'T MODIFY THIS FILE
-----------------------
PERFORMER: auCDtect Task Manager, ver. 1.5.1RC3 build 1.5.1.4
Copyright (c) 2008-2010 y-soft. All rights reserved
[url=http://y-soft.org]http://y-soft.org[/url]
ANALYZER: auCDtect: CD records authenticity detector, version 0.8.2
Copyright (c) 2004 Oleg Berngardt. All rights reserved.
Copyright (c) 2004 Alexander Djourik. All rights reserved.
FILE: Texas Flood.wav
 Size: 625585004 Hash: 55F75888FC480D713A324E431CAF3D76 Accuracy: -m8
 Conclusion: CDDA 100%
 Signature: E62E52A0FB3F0982D9ADDE29AAD3EDE90A45BE37
FILE: Texas Flood.flac
 Size: 369803524 Hash: 55F75888FC480D713A324E431CAF3D76 Accuracy: -m8
 Conclusion: CDDA 100%
 Signature: 36CF6855FEEC62DAD1029508B8169F1D4201285D
#7701. Scuttle Buttin' 01:51
02. Couldn't Stand The Weather 04:41
03. The Things (That) I Used To Do 04:55
04. Voodoo Child (Slight Return) 07:59
05. Cold Shot 04:01
06. Tin Pan Alley (aka Roughest Place In Town) 09:11
07. Honey Bee 02:43
08. Stang's Swang 02:55
Bonus Tracks:
09. SRV Speaks 01:08
10. Hide Away 04:04
11. Look At Little Sister 02:46
12. Give Me Back My Wig 04:07
13. Come On (Pt. III) 04:33
Код: Выделить всё
Exact Audio Copy V1.0 beta 3 from 29. August 2011
EAC extraction logfile from 1. July 2013, 19:20
Stevie Ray Vaughan And Double Trouble / Couldn't Stand The Weather
Used drive : PLEXTOR BD-R PX-B950SA Adapter: 6 ID: 0
Read mode : Secure
Utilize accurate stream : Yes
Defeat audio cache : Yes
Make use of C2 pointers : No
Read offset correction : 6
Overread into Lead-In and Lead-Out : No
Fill up missing offset samples with silence : Yes
Delete leading and trailing silent blocks : No
Null samples used in CRC calculations : Yes
Used interface : Native Win32 interface for Win NT & 2000
Used output format : Internal WAV Routines
Sample format : 44.100 Hz; 16 Bit; Stereo
TOC of the extracted CD
 Track | Start | Length | Start sector | End sector
 ---------------------------------------------------------
 1 | 0:00.00 | 1:51.67 | 0 | 8391
 2 | 1:51.67 | 4:41.13 | 8392 | 29479
 3 | 6:33.05 | 4:55.30 | 29480 | 51634
 4 | 11:28.35 | 7:59.17 | 51635 | 87576
 5 | 19:27.52 | 4:01.33 | 87577 | 105684
 6 | 23:29.10 | 9:11.50 | 105685 | 147059
 7 | 32:40.60 | 2:43.10 | 147060 | 159294
 8 | 35:23.70 | 2:55.12 | 159295 | 172431
 9 | 38:19.07 | 1:08.28 | 172432 | 177559
 10 | 39:27.35 | 4:04.02 | 177560 | 195861
 11 | 43:31.37 | 2:46.35 | 195862 | 208346
 12 | 46:17.72 | 4:07.33 | 208347 | 226904
 13 | 50:25.30 | 4:33.32 | 226905 | 247411
Range status and errors
Selected range
 Filename C:\Users\Meijin\Desktop\Lossless Galaxy ALLexxess\Stevie Ray Vaughan\2013 Original Album Classics (5CD Box Set Epic Records)\1984 Couldn't Stand The Weather\Stevie Ray Vaughan And Double Trouble - Couldn't Stand The Weather.wav
 Peak level 100.0 %
 Extraction speed 8.0 X
 Range quality 100.0 %
 Test CRC 1AA3F1A2
 Copy CRC 1AA3F1A2
 Copy OK
No errors occurred
AccurateRip summary
Track 1 cannot be verified as accurate (confidence 4) [E5064CA6], AccurateRip returned [E247BCCA] (AR v2)
Track 2 cannot be verified as accurate (confidence 3) [0365A1E2], AccurateRip returned [B0CA056E] (AR v2)
Track 3 cannot be verified as accurate (confidence 4) [2A63A314], AccurateRip returned [CE742433] (AR v2)
Track 4 cannot be verified as accurate (confidence 3) [D9235E5E], AccurateRip returned [0B766B31] (AR v2)
Track 5 cannot be verified as accurate (confidence 4) [447AE339], AccurateRip returned [35A9ED98] (AR v2)
Track 6 cannot be verified as accurate (confidence 4) [C47FFF4E], AccurateRip returned [38391526] (AR v2)
Track 7 cannot be verified as accurate (confidence 4) [172C1AC8], AccurateRip returned [B2FB3059] (AR v2)
Track 8 cannot be verified as accurate (confidence 3) [EBCE19D6], AccurateRip returned [F3AE9BFA] (AR v2)
Track 9 cannot be verified as accurate (confidence 3) [500BFAE6], AccurateRip returned [B25AA776] (AR v2)
Track 10 cannot be verified as accurate (confidence 4) [A1FB8021], AccurateRip returned [067D80A8] (AR v2)
Track 11 cannot be verified as accurate (confidence 4) [B539C9B0], AccurateRip returned [7962687B] (AR v2)
Track 12 cannot be verified as accurate (confidence 3) [4BF44F55], AccurateRip returned [4CE98C7A] (AR v2)
Track 13 cannot be verified as accurate (confidence 3) [15E266A0], AccurateRip returned [9C8B6ECA] (AR v2)
No tracks could be verified as accurate
You may have a different pressing from the one(s) in the database
End of status report
==== Log checksum 39ABDF40B0B145D9EB4DD0443E797B94AFFB599207C383738DA94C57D90C41BF ====
Код: Выделить всё
REM GENRE "Blues Rock"
REM DATE 1984
REM DISCID A60CE20D
REM COMMENT "ExactAudioCopy v1.0b3"
PERFORMER "Stevie Ray Vaughan And Double Trouble"
TITLE "Couldn't Stand The Weather"
FILE "Stevie Ray Vaughan And Double Trouble - Couldn't Stand The Weather.flac" WAVE
  TRACK 01 AUDIO
    TITLE "Scuttle Buttin'"
    PERFORMER "Stevie Ray Vaughan And Double Trouble"
    INDEX 01 00:00:00
  TRACK 02 AUDIO
    TITLE "Couldn't Stand The Weather"
    PERFORMER "Stevie Ray Vaughan And Double Trouble"
    INDEX 00 01:51:40
    INDEX 01 01:51:67
  TRACK 03 AUDIO
    TITLE "The Things (That) I Used To Do"
    PERFORMER "Stevie Ray Vaughan And Double Trouble"
    INDEX 00 06:32:70
    INDEX 01 06:33:05
  TRACK 04 AUDIO
    TITLE "Voodoo Chile (Slight Return)"
    PERFORMER "Stevie Ray Vaughan And Double Trouble"
    INDEX 00 11:27:32
    INDEX 01 11:28:35
  TRACK 05 AUDIO
    TITLE "Cold Shot"
    PERFORMER "Stevie Ray Vaughan And Double Trouble"
    INDEX 00 19:27:00
    INDEX 01 19:27:52
  TRACK 06 AUDIO
    TITLE "Tin Pan Alley (aka Roughest Place In Town)"
    PERFORMER "Stevie Ray Vaughan And Double Trouble"
    INDEX 00 23:28:35
    INDEX 01 23:29:10
  TRACK 07 AUDIO
    TITLE "Honey Bee"
    PERFORMER "Stevie Ray Vaughan And Double Trouble"
    INDEX 00 32:40:52
    INDEX 01 32:40:60
  TRACK 08 AUDIO
    TITLE "Stang's Swang"
    PERFORMER "Stevie Ray Vaughan And Double Trouble"
    INDEX 00 35:23:60
    INDEX 01 35:23:70
  TRACK 09 AUDIO
    TITLE "SRV Speaks / Bonus Track"
    PERFORMER "Stevie Ray Vaughan And Double Trouble"
    INDEX 00 38:09:10
    INDEX 01 38:19:07
  TRACK 10 AUDIO
    TITLE "Hide Away / Bonus Track"
    PERFORMER "Stevie Ray Vaughan And Double Trouble"
    INDEX 01 39:27:35
  TRACK 11 AUDIO
    TITLE "Look At Little Sister / Bonus Track"
    PERFORMER "Stevie Ray Vaughan And Double Trouble"
    INDEX 00 43:31:35
    INDEX 01 43:31:37
  TRACK 12 AUDIO
    TITLE "Give Me Back My Wig / Bonus Track"
    PERFORMER "Stevie Ray Vaughan And Double Trouble"
    INDEX 00 46:17:70
    INDEX 01 46:17:72
  TRACK 13 AUDIO
    TITLE "Come On (Pt. III) / Bonus Track"
    PERFORMER "Stevie Ray Vaughan And Double Trouble"
    INDEX 00 50:25:10
    INDEX 01 50:25:30
Код: Выделить всё
-----------------------
DON'T MODIFY THIS FILE
-----------------------
PERFORMER: auCDtect Task Manager, ver. 1.5.1RC3 build 1.5.1.4
Copyright (c) 2008-2010 y-soft. All rights reserved
[url=http://y-soft.org]http://y-soft.org[/url]
ANALYZER: auCDtect: CD records authenticity detector, version 0.8.2
Copyright (c) 2004 Oleg Berngardt. All rights reserved.
Copyright (c) 2004 Alexander Djourik. All rights reserved.
FILE: Couldn't Stand The Weather.wav
 Size: 581913068 Hash: 58341FE2F06F85D1E34C7181235B5C57 Accuracy: -m8
 Conclusion: CDDA 100%
 Signature: AE72444DB349FD1580903C2A7FB070E6F087E4B1
FILE: Couldn't Stand The Weather.flac
 Size: 352390646 Hash: 58341FE2F06F85D1E34C7181235B5C57 Accuracy: -m8
 Conclusion: CDDA 100%
 Signature: 92E2DD725785810F2083A07B86A5C8E53A7F3E16
#7701. Say What! 05:23
02. Lookin' Out The Window 02:49
03. Look At Little Sister 03:08
04. Ain't Gone 'N' Give Up On Love 06:07
05. Gone Home 03:07
06. Change It 03:57
07. You'll Be Mine 03:45
08. Empty Arms 03:03
09. Come On (Part III) 04:31
10. Life Without You 04:28
Bonus Tracks:
11. SRV Speaks 01:41
12. Little Wing/Third Stone From The Sun 13:32
13. Slip Slidin' Slim 01:41
Код: Выделить всё
Exact Audio Copy V1.0 beta 3 from 29. August 2011
EAC extraction logfile from 1. July 2013, 18:03
Stevie Ray Vaughan And Double Trouble / Soul To Soul
Used drive : PLEXTOR BD-R PX-B950SA Adapter: 6 ID: 0
Read mode : Secure
Utilize accurate stream : Yes
Defeat audio cache : Yes
Make use of C2 pointers : No
Read offset correction : 6
Overread into Lead-In and Lead-Out : No
Fill up missing offset samples with silence : Yes
Delete leading and trailing silent blocks : No
Null samples used in CRC calculations : Yes
Used interface : Native Win32 interface for Win NT & 2000
Used output format : Internal WAV Routines
Sample format : 44.100 Hz; 16 Bit; Stereo
TOC of the extracted CD
 Track | Start | Length | Start sector | End sector
 ---------------------------------------------------------
 1 | 0:00.00 | 5:23.15 | 0 | 24239
 2 | 5:23.15 | 2:49.00 | 24240 | 36914
 3 | 8:12.15 | 3:08.56 | 36915 | 51070
 4 | 11:20.71 | 6:07.54 | 51071 | 78649
 5 | 17:28.50 | 3:07.57 | 78650 | 92731
 6 | 20:36.32 | 3:57.55 | 92732 | 110561
 7 | 24:34.12 | 3:45.71 | 110562 | 127507
 8 | 28:20.08 | 3:03.65 | 127508 | 141297
 9 | 31:23.73 | 4:31.57 | 141298 | 161679
 10 | 35:55.55 | 4:28.05 | 161680 | 181784
 11 | 40:23.60 | 1:41.67 | 181785 | 189426
 12 | 42:05.52 | 13:32.33 | 189427 | 250359
 13 | 55:38.10 | 1:41.62 | 250360 | 257996
Range status and errors
Selected range
 Filename C:\Users\Meijin\Desktop\Lossless Galaxy ALLexxess\Stevie Ray Vaughan\2013 Original Album Classics (5CD Box Set Epic Records)\1985 Soul To Soul\Stevie Ray Vaughan And Double Trouble - Soul To Soul.wav
 Peak level 100.0 %
 Extraction speed 8.1 X
 Range quality 100.0 %
 Test CRC FD7AEAA8
 Copy CRC FD7AEAA8
 Copy OK
No errors occurred
AccurateRip summary
Track 1 not present in database
Track 2 not present in database
Track 3 not present in database
Track 4 not present in database
Track 5 not present in database
Track 6 not present in database
Track 7 not present in database
Track 8 not present in database
Track 9 not present in database
Track 10 not present in database
Track 11 not present in database
Track 12 not present in database
Track 13 not present in database
None of the tracks are present in the AccurateRip database
End of status report
==== Log checksum 55D3EDC5FDC92B8B6B48871DB59A1A63A0AC30F0767FF782C0EBED0FD58BCCE5 ====
Код: Выделить всё
REM GENRE "Blues Rock"
REM DATE 1985
REM DISCID A90D6F0D
REM COMMENT "ExactAudioCopy v1.0b3"
PERFORMER "Stevie Ray Vaughan And Double Trouble"
TITLE "Soul To Soul"
FILE "Stevie Ray Vaughan And Double Trouble - Soul To Soul.flac" WAVE
  TRACK 01 AUDIO
    TITLE "Say What!"
    PERFORMER "Stevie Ray Vaughan And Double Trouble"
    INDEX 01 00:00:00
  TRACK 02 AUDIO
    TITLE "Lookin' Out The Window"
    PERFORMER "Stevie Ray Vaughan And Double Trouble"
    INDEX 01 05:23:15
  TRACK 03 AUDIO
    TITLE "Look At Little Sister"
    PERFORMER "Stevie Ray Vaughan And Double Trouble"
    INDEX 00 08:11:65
    INDEX 01 08:12:15
  TRACK 04 AUDIO
    TITLE "Ain't Gone 'N' Give Up On Love"
    PERFORMER "Stevie Ray Vaughan And Double Trouble"
    INDEX 00 11:19:55
    INDEX 01 11:20:71
  TRACK 05 AUDIO
    TITLE "Gone Home"
    PERFORMER "Stevie Ray Vaughan And Double Trouble"
    INDEX 00 17:28:12
    INDEX 01 17:28:50
  TRACK 06 AUDIO
    TITLE "Change It"
    PERFORMER "Stevie Ray Vaughan And Double Trouble"
    INDEX 00 20:35:55
    INDEX 01 20:36:32
  TRACK 07 AUDIO
    TITLE "You'll Be Mine"
    PERFORMER "Stevie Ray Vaughan And Double Trouble"
    INDEX 00 24:34:00
    INDEX 01 24:34:12
  TRACK 08 AUDIO
    TITLE "Empty Arms"
    PERFORMER "Stevie Ray Vaughan And Double Trouble"
    INDEX 00 28:19:02
    INDEX 01 28:20:08
  TRACK 09 AUDIO
    TITLE "Come On (Part III)"
    PERFORMER "Stevie Ray Vaughan And Double Trouble"
    INDEX 00 31:23:30
    INDEX 01 31:23:73
  TRACK 10 AUDIO
    TITLE "Life Without You"
    PERFORMER "Stevie Ray Vaughan And Double Trouble"
    INDEX 00 35:54:20
    INDEX 01 35:55:55
  TRACK 11 AUDIO
    TITLE "SRV Speaks (Bonus Track)"
    PERFORMER "Stevie Ray Vaughan And Double Trouble"
    INDEX 00 40:15:25
    INDEX 01 40:23:60
  TRACK 12 AUDIO
    TITLE "Little Wing / Third Stone From The Sun (Bonus Track)"
    PERFORMER "Stevie Ray Vaughan And Double Trouble"
    INDEX 01 42:05:52
  TRACK 13 AUDIO
    TITLE "Slip Slidin' Slim (Bonus Track)"
    PERFORMER "Stevie Ray Vaughan And Double Trouble"
    INDEX 00 55:35:60
    INDEX 01 55:38:10
Код: Выделить всё
-----------------------
DON'T MODIFY THIS FILE
-----------------------
PERFORMER: auCDtect Task Manager, ver. 1.5.1RC3 build 1.5.1.4
Copyright (c) 2008-2010 y-soft. All rights reserved
[url=http://y-soft.org]http://y-soft.org[/url]
ANALYZER: auCDtect: CD records authenticity detector, version 0.8.2
Copyright (c) 2004 Oleg Berngardt. All rights reserved.
Copyright (c) 2004 Alexander Djourik. All rights reserved.
FILE: Soul To Soul.wav
 Size: 606808988 Hash: 516A3B35D833A2ED60B6C745DDBCA0FA Accuracy: -m8
 Conclusion: CDDA 100%
 Signature: 77F6C5BC871F712E97F7148F23C1C379A294DC78
FILE: Soul To Soul.flac
 Size: 381127311 Hash: 516A3B35D833A2ED60B6C745DDBCA0FA Accuracy: -m8
 Conclusion: CDDA 100%
 Signature: 642BC0470FAA43AEA1270E13D1A129AF21C09582
#7701. The House Is Rockin' 02:24
02. Crossfire 04:10
03. Tightrope 04:40
04. Let Me Love You Baby 02:43
05. Leave My Girl Alone 04:15
06. Travis Walk 02:19
07. Wall Of Denial 05:36
08. Scratch-N-Sniff 02:43
09. Love Me Darlin' 03:21
10. Riviera Paradise 09:00
Bonus Tracks:
11. SRV Speaks 01:33
12. The House Is Rockin' (Live) 02:48
13. Let Me Love You Baby (Live) 03:46
14. Texas Flood (Live) 07:28
15. Life Without You (Live) 13:17
Код: Выделить всё
Exact Audio Copy V1.0 beta 3 from 29. August 2011
EAC extraction logfile from 1. July 2013, 14:42
Stevie Ray Vaughan And Double Trouble / In Step
Used drive : PLEXTOR BD-R PX-B950SA Adapter: 6 ID: 0
Read mode : Secure
Utilize accurate stream : Yes
Defeat audio cache : Yes
Make use of C2 pointers : No
Read offset correction : 6
Overread into Lead-In and Lead-Out : No
Fill up missing offset samples with silence : Yes
Delete leading and trailing silent blocks : No
Null samples used in CRC calculations : Yes
Used interface : Native Win32 interface for Win NT & 2000
Used output format : Internal WAV Routines
Sample format : 44.100 Hz; 16 Bit; Stereo
TOC of the extracted CD
 Track | Start | Length | Start sector | End sector
 ---------------------------------------------------------
 1 | 0:00.00 | 2:24.17 | 0 | 10816
 2 | 2:24.17 | 4:10.55 | 10817 | 29621
 3 | 6:34.72 | 4:40.50 | 29622 | 50671
 4 | 11:15.47 | 2:43.60 | 50672 | 62956
 5 | 13:59.32 | 4:15.73 | 62957 | 82154
 6 | 18:15.30 | 2:19.72 | 82155 | 92651
 7 | 20:35.27 | 5:36.33 | 92652 | 117884
 8 | 26:11.60 | 2:43.10 | 117885 | 130119
 9 | 28:54.70 | 3:21.12 | 130120 | 145206
 10 | 32:16.07 | 9:00.35 | 145207 | 185741
 11 | 41:16.42 | 1:33.37 | 185742 | 192753
 12 | 42:50.04 | 2:48.15 | 192754 | 205368
 13 | 45:38.19 | 3:46.36 | 205369 | 222354
 14 | 49:24.55 | 7:28.35 | 222355 | 255989
 15 | 56:53.15 | 13:17.12 | 255990 | 315776
Range status and errors
Selected range
 Filename C:\Users\Meijin\Desktop\Lossless Galaxy ALLexxess\Stevie Ray Vaughan\2013 Original Album Classics (5CD Box Set Epic Records)\1989 In Step\Stevie Ray Vaughan And Double Trouble - In Step.wav
 Peak level 100.0 %
 Extraction speed 3.9 X
 Range quality 100.0 %
 Test CRC B152D3C0
 Copy CRC B152D3C0
 Copy OK
No errors occurred
AccurateRip summary
Track 1 not present in database
Track 2 not present in database
Track 3 not present in database
Track 4 not present in database
Track 5 not present in database
Track 6 not present in database
Track 7 not present in database
Track 8 not present in database
Track 9 not present in database
Track 10 not present in database
Track 11 not present in database
Track 12 not present in database
Track 13 not present in database
Track 14 not present in database
Track 15 not present in database
None of the tracks are present in the AccurateRip database
End of status report
==== Log checksum 70AC453AD20014BB44CB75D47D5CCE88EDD80359D9628C94D4D4DE2F3D7FD105 ====
Код: Выделить всё
REM GENRE "Blues Rock"
REM DATE 1989
REM DISCID EA10720F
REM COMMENT "ExactAudioCopy v1.0b3"
PERFORMER "Stevie Ray Vaughan And Double Trouble"
TITLE "In Step"
FILE "Stevie Ray Vaughan And Double Trouble - In Step.flac" WAVE
  TRACK 01 AUDIO
    TITLE "The House Is Rockin'"
    PERFORMER "Stevie Ray Vaughan And Double Trouble"
    INDEX 01 00:00:00
  TRACK 02 AUDIO
    TITLE "Crossfire"
    PERFORMER "Stevie Ray Vaughan And Double Trouble"
    INDEX 01 02:24:17
  TRACK 03 AUDIO
    TITLE "Tightrope"
    PERFORMER "Stevie Ray Vaughan And Double Trouble"
    INDEX 00 06:34:12
    INDEX 01 06:34:72
  TRACK 04 AUDIO
    TITLE "Let Me Love You Baby"
    PERFORMER "Stevie Ray Vaughan And Double Trouble"
    INDEX 00 11:14:22
    INDEX 01 11:15:47
  TRACK 05 AUDIO
    TITLE "Leave My Girl Alone"
    PERFORMER "Stevie Ray Vaughan And Double Trouble"
    INDEX 00 13:58:42
    INDEX 01 13:59:32
  TRACK 06 AUDIO
    TITLE "Travis Walk"
    PERFORMER "Stevie Ray Vaughan And Double Trouble"
    INDEX 01 18:15:30
  TRACK 07 AUDIO
    TITLE "Wall Of Denial"
    PERFORMER "Stevie Ray Vaughan And Double Trouble"
    INDEX 00 20:34:30
    INDEX 01 20:35:27
  TRACK 08 AUDIO
    TITLE "Scratch-N-Sniff"
    PERFORMER "Stevie Ray Vaughan And Double Trouble"
    INDEX 00 26:11:55
    INDEX 01 26:11:60
  TRACK 09 AUDIO
    TITLE "Love Me Darlin'"
    PERFORMER "Stevie Ray Vaughan And Double Trouble"
    INDEX 00 28:54:07
    INDEX 01 28:54:70
  TRACK 10 AUDIO
    TITLE "Riviera Paradise"
    PERFORMER "Stevie Ray Vaughan And Double Trouble"
    INDEX 01 32:16:07
  TRACK 11 AUDIO
    TITLE "SRV Speaks / Bonus Track"
    PERFORMER "Stevie Ray Vaughan And Double Trouble"
    INDEX 00 41:06:45
    INDEX 01 41:16:42
  TRACK 12 AUDIO
    TITLE "The House Is Rockin' (Live) / Bonus Track"
    PERFORMER "Stevie Ray Vaughan And Double Trouble"
    INDEX 01 42:50:04
  TRACK 13 AUDIO
    TITLE "Let Me Love You Baby (Live ) / Bonus Track"
    PERFORMER "Stevie Ray Vaughan And Double Trouble"
    INDEX 01 45:38:19
  TRACK 14 AUDIO
    TITLE "Texas Flood (Live ) / Bonus Track"
    PERFORMER "Stevie Ray Vaughan And Double Trouble"
    INDEX 01 49:24:55
  TRACK 15 AUDIO
    TITLE "Life Without You (Live) / Bonus Track"
    PERFORMER "Stevie Ray Vaughan And Double Trouble"
    INDEX 01 56:53:15
Код: Выделить всё
-----------------------
DON'T MODIFY THIS FILE
-----------------------
PERFORMER: auCDtect Task Manager, ver. 1.5.1RC3 build 1.5.1.4
Copyright (c) 2008-2010 y-soft. All rights reserved
[url=http://y-soft.org]http://y-soft.org[/url]
ANALYZER: auCDtect: CD records authenticity detector, version 0.8.2
Copyright (c) 2004 Oleg Berngardt. All rights reserved.
Copyright (c) 2004 Alexander Djourik. All rights reserved.
FILE: In Step.wav
 Size: 742707548 Hash: 7C2441365F4C73346F44756A46A03098 Accuracy: -m8
 Conclusion: CDDA 100%
 Signature: E81B89A22CD560ED89011153A58B9B466625D998
FILE: In Step.flac
 Size: 465234127 Hash: 7C2441365F4C73346F44756A46A03098 Accuracy: -m8
 Conclusion: CDDA 100%
 Signature: 81D3D94967811F8FABF56C5C03F304FD2B61F257
#7701. Boot Hill 02:15
02. The Sky Is Crying 04:38
03. Empty Arms 03:31
04. Little Wing 06:50
05. Wham 02:27
06. May I Have A Talk With You 05:50
07. Close To You 03:13
08. Chitlins Con Carne 03:59
09. So Excited 03:32
10. Life By The Drop 02:27
Код: Выделить всё
Exact Audio Copy V1.0 beta 3 from 29. August 2011
EAC extraction logfile from 30. June 2013, 18:42
Stevie Ray Vaughan And Double Trouble / The Sky Is Crying
Used drive : PLEXTOR BD-R PX-B950SA Adapter: 6 ID: 0
Read mode : Secure
Utilize accurate stream : Yes
Defeat audio cache : Yes
Make use of C2 pointers : No
Read offset correction : 6
Overread into Lead-In and Lead-Out : No
Fill up missing offset samples with silence : Yes
Delete leading and trailing silent blocks : No
Null samples used in CRC calculations : Yes
Used interface : Native Win32 interface for Win NT & 2000
Used output format : Internal WAV Routines
Sample format : 44.100 Hz; 16 Bit; Stereo
TOC of the extracted CD
 Track | Start | Length | Start sector | End sector
 ---------------------------------------------------------
 1 | 0:00.00 | 2:15.73 | 0 | 10197
 2 | 2:15.73 | 4:38.32 | 10198 | 31079
 3 | 6:54.30 | 3:31.05 | 31080 | 46909
 4 | 10:25.35 | 6:50.43 | 46910 | 77702
 5 | 17:16.03 | 2:27.25 | 77703 | 88752
 6 | 19:43.28 | 5:50.70 | 88753 | 115072
 7 | 25:34.23 | 3:13.67 | 115073 | 129614
 8 | 28:48.15 | 3:59.20 | 129615 | 147559
 9 | 32:47.35 | 3:32.55 | 147560 | 163514
 10 | 36:20.15 | 2:27.38 | 163515 | 174577
Range status and errors
Selected range
 Filename C:\Users\Meijin\Desktop\Lossless Galaxy ALLexxess\Stevie Ray Vaughan\2013 Original Album Classics (5CD Box Set Epic Records)\1991 The Sky Is Crying\Stevie Ray Vaughan And Double Trouble - The Sky Is Crying.wav
 Peak level 97.3 %
 Extraction speed 7.4 X
 Range quality 100.0 %
 Test CRC 6FB24F46
 Copy CRC 6FB24F46
 Copy OK
No errors occurred
AccurateRip summary
Track 1 not present in database
Track 2 not present in database
Track 3 not present in database
Track 4 not present in database
Track 5 not present in database
Track 6 not present in database
Track 7 not present in database
Track 8 not present in database
Track 9 not present in database
Track 10 not present in database
None of the tracks are present in the AccurateRip database
End of status report
==== Log checksum 25CA042778DC2C27864A46BCC55E26012869B588FC7E28B48154C1B1965864A3 ====
Код: Выделить всё
REM GENRE "Blues Rock"
REM DATE 1991
REM DISCID 8209170A
REM COMMENT "ExactAudioCopy v1.0b3"
PERFORMER "Stevie Ray Vaughan And Double Trouble"
TITLE "The Sky Is Crying"
FILE "Stevie Ray Vaughan And Double Trouble - The Sky Is Crying.flac" WAVE
  TRACK 01 AUDIO
    TITLE "Boot Hill"
    PERFORMER "Stevie Ray Vaughan And Double Trouble"
    INDEX 01 00:00:00
  TRACK 02 AUDIO
    TITLE "The Sky Is Crying"
    PERFORMER "Stevie Ray Vaughan And Double Trouble"
    INDEX 00 02:13:50
    INDEX 01 02:15:73
  TRACK 03 AUDIO
    TITLE "Empty Arms"
    PERFORMER "Stevie Ray Vaughan And Double Trouble"
    INDEX 00 06:52:53
    INDEX 01 06:54:30
  TRACK 04 AUDIO
    TITLE "Little Wing"
    PERFORMER "Stevie Ray Vaughan And Double Trouble"
    INDEX 00 10:22:45
    INDEX 01 10:25:35
  TRACK 05 AUDIO
    TITLE "Wham"
    PERFORMER "Stevie Ray Vaughan And Double Trouble"
    INDEX 00 17:13:03
    INDEX 01 17:16:03
  TRACK 06 AUDIO
    TITLE "May I Have A Talk With You"
    PERFORMER "Stevie Ray Vaughan And Double Trouble"
    INDEX 00 19:40:48
    INDEX 01 19:43:28
  TRACK 07 AUDIO
    TITLE "Close To You"
    PERFORMER "Stevie Ray Vaughan And Double Trouble"
    INDEX 00 25:31:40
    INDEX 01 25:34:23
  TRACK 08 AUDIO
    TITLE "Chitlins Con Carne"
    PERFORMER "Stevie Ray Vaughan And Double Trouble"
    INDEX 00 28:45:25
    INDEX 01 28:48:15
  TRACK 09 AUDIO
    TITLE "So Excited"
    PERFORMER "Stevie Ray Vaughan And Double Trouble"
    INDEX 00 32:44:28
    INDEX 01 32:47:35
  TRACK 10 AUDIO
    TITLE "Life By The Drop"
    PERFORMER "Stevie Ray Vaughan And Double Trouble"
    INDEX 00 36:16:35
    INDEX 01 36:20:15
Код: Выделить всё
-----------------------
DON'T MODIFY THIS FILE
-----------------------
PERFORMER: auCDtect Task Manager, ver. 1.5.1RC3 build 1.5.1.4
Copyright (c) 2008-2010 y-soft. All rights reserved
[url=http://y-soft.org]http://y-soft.org[/url]
ANALYZER: auCDtect: CD records authenticity detector, version 0.8.2
Copyright (c) 2004 Oleg Berngardt. All rights reserved.
Copyright (c) 2004 Alexander Djourik. All rights reserved.
FILE: The Sky Is Crying.wav
 Size: 410607500 Hash: 58485F2AD8FAF61281CE404AECEE3535 Accuracy: -m8
 Conclusion: CDDA 100%
 Signature: 0A8AE4E94D66A91DD6D7B955444E51CD0E5CB6F4
FILE: The Sky Is Crying.flac
 Size: 254506925 Hash: 58485F2AD8FAF61281CE404AECEE3535 Accuracy: -m8
 Conclusion: CDDA 100%
 Signature: 9EA15541249769987407ECB65D3ED531A93191B0
2013 Original Album Classics
(5CD Box Set Epic Records)
Albums:
1983 Texas Flood; 1984 Couldn't Stand The Weather; 1985 Soul To Soul; 1989 In Step; 1991 The Sky Is Crying
Info:
Sony Music / Legacy Recordings / Epic Records
Catalog Box: 88883719842
Catalog CDs: 88883719842D1(JK1) ~ D5(JK5)
Made in USA
Box: 12 / 12 / 13 / 13 / 13
Не забывайте говорить Спасибо. Не уходите с раздачи!   
Торрент: Зарегистрирован [31 мар 2018, 15:23] Для скачивания .torrent
необходима регистрация
Или скачать с помощью
MediaGet
Статус:
Проверен
 
.torrent скачан: 1 раз
Размер: 1.95 ГБ (2 097 212 277 байт)
   Стать Автором раздачи
   
Цитата
  • Похожие торренты
    Ответы
    Просмотры
    Последнее сообщение

Вернуться в Blues

Кто сейчас на конференции

Сейчас эту тему просматривают: нет зарегистрированных пользователей и гости: 1