Маленький большой человек / Little Big Man (1970) BDRip 720p от KORSAR | P, A

 Статистика раздачи 
Размер: 9.73 ГБ   |  Зарегистрирован: 13 янв 2018, 19:27   |   .torrent скачан: 0 раз
Сидеров: 3  [ 0 байт/сек ]     Личеров: 1  [ 0 байт/сек ]  
  
Аватара пользователя
Главный редактор
Главный редактор
Я на сайте
 
Раздал: 10.39 ТБ
Скачал: 2.14 ТБ
Ратио: 5.276
Сообщения: 68122
Стаж: 7 лет 3 месяца 25 дней
Откуда: Санкт-Петербург

Информация о фильме
Название: Маленький большой человек
Оригинальное название: Little Big Man
Год выпуска: 1970
Жанр: драма, приключения, вестерн, военный, экранизация
Выпущено: США, Cinema Center Films
Продолжительность: 02:19:25
Перевод: Профессиональный многоголосый, авторский
Режиссер: Артур Пенн
В ролях: Дастин Хоффман, Фэй Данауэй, Вождь Дэн Джордж, Мартин Болсам, Ричард Маллиган, Джефф Кори, Эме Экклес, Келли Джин Питерс, Кэрол Андроски, Роберт Литтл Стар, Кэл Беллини, Рубен Морено, Уильям Хикки, Джеймс Андерсон, Джесси Винт

О фильме:
Экранизация по произведению Томаса Бергера. Эпическая история Дикого Запада будет поведана главным героем - стодвадцатилетним стариком в виртуозном исполнении Хоффмана, которому удалось выжить в чудовищной мясорубке, устроенной генералом Кастером. Он расскажет о том, как был усыновлeн индейцами и как стал другом знаменитого стрелка «Дикого Билла» Хикока.



Файл
Качество: BDRip 720p
Видео: MPEG-4 AVC, 8517 Кбит/сек, 1280x542, 23,976 кадра/сек
Аудио 1: AC3, 6 ch, 384 Кбит/сек |Профессиональный многоголосый, R5|
Аудио 2: AC3, 6 ch, 448 Кбит/сек |Авторский одноголосый, А. Гаврилов|
Аудио 3: AC3, 2 ch, 192 Кбит/сек |Авторский одноголосый А. Михалёв|
Аудио 4: AC3, 6 ch, 448 Кбит/сек |Оригинал|
Субтитры: Русские, английские, финские, французские, немецкие, итальянские
Навигация по главам: есть

Релиз от: mzma




x264 [info]: frame I:1694 Avg QP:16.28 size: 174239
x264 [info]: frame P:37732 Avg QP:19.92 size: 80926
x264 [info]: frame B:161125 Avg QP:22.09 size: 34740
---------------------------------------------------------------------
Общее
Уникальный идентификатор : 230049147900463863769369215557205440114 (0xAD11DAB0EDE7C2609424C1FDB48B3672)
Полное имя : Маленький.большой.человек.1970.BDRip.720p.KORSAR.mkv
Формат : Matroska
Версия формата : Version 2
Размер файла : 9,73 Гбайт
Продолжительность : 2 ч. 19 м.
Общий поток : 9991 Кбит/сек
Дата кодирования : UTC 2017-09-18 16:12:16
Программа кодирования : mkvmerge v5.8.0 ('No Sleep / Pillow') built on Sep 2 2012 15:37:04
Библиотека кодирования : libebml v1.2.3 + libmatroska v1.3.0

Видео
Идентификатор : 1
Формат : AVC
Формат/Информация : Advanced Video Codec
Профиль формата : [email protected]
Параметр CABAC формата : Да
Параметр ReFrames формата : 12 кадров
Идентификатор кодека : V_MPEG4/ISO/AVC
Продолжительность : 2 ч. 19 м.
Битрейт : 8517 Кбит/сек
Ширина : 1280 пикселей
Высота : 542 пикселя
Соотношение сторон : 2,35:1
Режим частоты кадров : Постоянный
Частота кадров : 23,976 (24000/1001) кадра/сек
Цветовое пространство : YUV
Субдискретизация насыщенности : 4:2:0
Битовая глубина : 8 бит
Тип развёртки : Прогрессивная
Бит/(Пиксели*Кадры) : 0.512
Размер потока : 8,10 Гбайт (83%)
Заголовок : RIP | MZMA
Библиотека кодирования : x264 core 148 r2638 7599210
Настройки программы : cabac=1 / ref=12 / deblock=1:-3:-3 / analyse=0x3:0x113 / me=umh / subme=11 / psy=1 / psy_rd=1.00:0.00 / mixed_ref=1 / me_range=48 / chroma_me=1 / trellis=2 / 8x8dct=1 / cqm=0 / deadzone=21,11 / fast_pskip=0 / chroma_qp_offset=-2 / threads=6 / lookahead_threads=1 / sliced_threads=0 / nr=0 / decimate=0 / interlaced=0 / bluray_compat=0 / constrained_intra=0 / bframes=16 / b_pyramid=2 / b_adapt=2 / b_bias=0 / direct=3 / weightb=1 / open_gop=0 / weightp=2 / keyint=250 / keyint_min=23 / scenecut=40 / intra_refresh=0 / rc_lookahead=60 / rc=2pass / mbtree=1 / bitrate=8517 / ratetol=1.0 / qcomp=0.60 / qpmin=0 / qpmax=69 / qpstep=4 / cplxblur=20.0 / qblur=0.5 / vbv_maxrate=50000 / vbv_bufsize=62500 / nal_hrd=none / filler=0 / ip_ratio=1.40 / aq=1:0.80
Язык : English
Default : Да
Forced : Нет
Цветовой диапазон : Limited
Основные цвета : BT.709
Характеристики трансфера : BT.709
Коэффициенты матрицы : BT.709

Аудио #1
Идентификатор : 2
Формат : AC-3
Формат/Информация : Audio Coding 3
Параметр Endianness формата : Big
Идентификатор кодека : A_AC3
Продолжительность : 2 ч. 19 м.
Вид битрейта : Постоянный
Битрейт : 384 Кбит/сек
Каналы : 6 каналов
Расположение каналов : Front: L C R, Side: L R, LFE
Частота : 48,0 КГц
Частота кадров : 31,250 кадров/сек (1536 spf)
Битовая глубина : 16 бит
Метод сжатия : С потерями
Размер потока : 383 Мбайт (4%)
Заголовок : MVO | R5
Язык : Russian
Default : Да
Forced : Нет

Аудио #2
Идентификатор : 3
Формат : AC-3
Формат/Информация : Audio Coding 3
Параметр Endianness формата : Big
Идентификатор кодека : A_AC3
Продолжительность : 2 ч. 19 м.
Вид битрейта : Постоянный
Битрейт : 448 Кбит/сек
Каналы : 6 каналов
Расположение каналов : Front: L C R, Side: L R, LFE
Частота : 48,0 КГц
Частота кадров : 31,250 кадров/сек (1536 spf)
Битовая глубина : 16 бит
Метод сжатия : С потерями
Размер потока : 447 Мбайт (4%)
Заголовок : AVO | А. Гаврилов
Язык : Russian
Default : Нет
Forced : Нет

Аудио #3
Идентификатор : 4
Формат : AC-3
Формат/Информация : Audio Coding 3
Параметр Endianness формата : Big
Идентификатор кодека : A_AC3
Продолжительность : 2 ч. 19 м.
Вид битрейта : Постоянный
Битрейт : 192 Кбит/сек
Каналы : 2 канала
Расположение каналов : Front: L R
Частота : 48,0 КГц
Частота кадров : 31,250 кадров/сек (1536 spf)
Битовая глубина : 16 бит
Метод сжатия : С потерями
Размер потока : 191 Мбайт (2%)
Заголовок : AVO | А. Михалев
Язык : Russian
Default : Нет
Forced : Нет

Аудио #4
Идентификатор : 5
Формат : AC-3
Формат/Информация : Audio Coding 3
Параметр Endianness формата : Big
Идентификатор кодека : A_AC3
Продолжительность : 2 ч. 19 м.
Вид битрейта : Постоянный
Битрейт : 448 Кбит/сек
Каналы : 6 каналов
Расположение каналов : Front: L C R, Side: L R, LFE
Частота : 48,0 КГц
Частота кадров : 31,250 кадров/сек (1536 spf)
Битовая глубина : 16 бит
Метод сжатия : С потерями
Размер потока : 447 Мбайт (4%)
Заголовок : Original
Язык : English
Default : Нет
Forced : Нет

Текст #1
Идентификатор : 6
Формат : UTF-8
Идентификатор кодека : S_TEXT/UTF8
Идентификатор кодека/Информация : UTF-8 Plain Text
Язык : Russian
Default : Нет
Forced : Нет

Текст #2
Идентификатор : 7
Формат : UTF-8
Идентификатор кодека : S_TEXT/UTF8
Идентификатор кодека/Информация : UTF-8 Plain Text
Язык : English
Default : Нет
Forced : Нет

Текст #3
Идентификатор : 8
Формат : UTF-8
Идентификатор кодека : S_TEXT/UTF8
Идентификатор кодека/Информация : UTF-8 Plain Text
Язык : Finnish
Default : Нет
Forced : Нет

Текст #4
Идентификатор : 9
Формат : UTF-8
Идентификатор кодека : S_TEXT/UTF8
Идентификатор кодека/Информация : UTF-8 Plain Text
Язык : French
Default : Нет
Forced : Нет

Текст #5
Идентификатор : 10
Формат : UTF-8
Идентификатор кодека : S_TEXT/UTF8
Идентификатор кодека/Информация : UTF-8 Plain Text
Язык : German
Default : Нет
Forced : Нет

Текст #6
Идентификатор : 11
Формат : UTF-8
Идентификатор кодека : S_TEXT/UTF8
Идентификатор кодека/Информация : UTF-8 Plain Text
Язык : Italian
Default : Нет
Forced : Нет

Меню
00:00:00.000 : en:Chapter 01
00:07:33.786 : en:Chapter 02
00:25:25.273 : en:Chapter 03
00:39:34.330 : en:Chapter 04
00:55:24.779 : en:Chapter 05
01:06:42.331 : en:Chapter 06
01:30:08.111 : en:Chapter 07
01:47:06.294 : en:Chapter 08
02:02:16.495 : en:Chapter 09
02:12:02.915 : en:Chapter 10
   
Торрент: Зарегистрирован [13 янв 2018, 19:27] Скачать торрент Магнет ссылка
Скачать торрент
[ Размер 49.63 КБ / Просмотров 0 ]
Статус:
Проверен
 
.torrent скачан: 0 раз
Размер: 9.73 ГБ (10 446 632 302 байт)
   Стать Автором раздачи
 
 
Цитата

Вернуться в Зарубежное кино (HD Video)

Кто сейчас на конференции

Сейчас эту тему просматривают: нет зарегистрированных пользователей и гости: 1