Большой переполох в маленьком Китае / Big Trouble in Little China (1986) BDRip 1080p от NNNB | D, P, P2, A

 Статистика раздачи 
Размер: 7.94 ГБ   |  Зарегистрирован: 13 янв 2018, 18:15   |   .torrent скачан: 9 раз
Сидеров: 10  [ 0 байт/сек ]     Личеров: 2  [ 0 байт/сек ]  
  
Аватара пользователя
Главный редактор
Главный редактор
 
Раздал: 41.84 ТБ
Скачал: 2.42 ТБ
Ратио: 17.714
Сообщения: 124390
Стаж: 7 лет 9 месяцев 22 дня
Откуда: Санкт-Петербург


#77Информация о фильме
    Русское название: Большой переполох в маленьком Китае
    Оригинальное название: Big Trouble in Little China
    Год выхода: 1986
    Жанр: Ужасы, фэнтези, боевик, комедия, приключения
    Режиссер: Джон Карпентер
    Выпущено: США
    Продолжительность: 01:39:49
    Перевод: Дублированный, Профессиональный (Многоголосый, закадровый), Профессиональный (Двухголосый, закадровый), Авторский (А.Михалёв)
    В ролях: Курт Рассел, Ким Кэтролл, Деннис Дун, Джеймс Хонг, Виктор Вонг, Кейт Бертон, Дональд Ли, Картер Вон, Питер Квон, Джеймс Пакс, Suzee Pai, Чао Ли Чи, Джефф Имада, Раммел Мор, Крэйг ЭнДжи, Джун Киото Лу, Ноэль Той, Джерри Хардин, Джеймс Лью, Джим Лау, Кенни Эндосо


Сюжет фильма
    Крутой водитель грузовика по уши влипает в самую гущу интриг и приключений в "китайском квартале" Сан-Франциско, когда прямо на его глазах похищают невесту его друга. Снят фильм в духе Индианы Джонса, Расселл дает жизни направо и налево, так что любители этого жанра получат огромное удовольствие.


Файл
    Качество: BDRip 1080p (исходник Blu-ray Disc Remux)
    Видео: 1920x808, 8975 Кбит/сек, 23,976 кадр/сек, AVC, x264, [email protected], 2.40:1, 0.241 Бит/[Пиксели*Кадры]
    Аудио 1: AC-3, 448 Кбит/сек, 6 канала(ов), 48,0 КГц - Дублированный / Русский
    Аудио 2: AC-3, 448 Кбит/сек, 6 канала(ов), 48,0 КГц - Многоголосый закадровый, Киномания / Русский
    Аудио 3: AC-3, 448 Кбит/сек, 6 канала(ов), 48,0 КГц - Двухголосый закадровый, ОРТ / Русский
    Аудио 4: AC-3, 448 Кбит/сек, 6 канала(ов), 48,0 КГц - Одноголосый закадровый, A.Михалёв / Русский
    Аудио 5: AC-3, 640 Кбит/сек, 6 канала(ов), 48,0 КГц - Оригинал / Английский
    Субтитры: Русские | Полные, Английские | Полные
    Чаптеры (Главы): Есть



Автор Рипа: Сообщество:



Format : Matroska
Format version : Version 2
File size : 7.94 GiB
Duration : 1h 39mn
Overall bit rate : 11.4 Mbps
Movie name : Большой переполох в маленьком Китае.(1986).BDRip.1080p.[envy]
Encoded date : UTC 2014-04-12 05:33:03
Writing application : mkvmerge v5.8.0 ('No Sleep / Pillow') built on Sep 2 2012 15:37:04
Writing library : libebml v1.2.3 + libmatroska v1.3.0

Video
ID : 1
Format : AVC
Format/Info : Advanced Video Codec
Format profile : [email protected]
Format settings, CABAC : Yes
Format settings, ReFrames : 5 frames
Codec ID : V_MPEG4/ISO/AVC
Duration : 1h 39mn
Bit rate : 8 975 Kbps
Width : 1 920 pixels
Height : 808 pixels
Display aspect ratio : 2.40:1
Frame rate mode : Constant
Frame rate : 23.976 fps
Color space : YUV
Chroma subsampling : 4:2:0
Bit depth : 8 bits
Scan type : Progressive
Bits/(Pixel*Frame) : 0.241
Stream size : 6.09 GiB (77%)
Title : Большой переполох в маленьком Китае.(1986).BDRip.1080p.[envy]
Writing library : x264 core 142 r2409 d6b4e63
Encoding settings : cabac=1 / ref=5 / deblock=1:-3:-2 / analyse=0x3:0x133 / me=umh / subme=11 / psy=1 / psy_rd=1.00:0.00 / mixed_ref=1 / me_range=48 / chroma_me=1 / trellis=2 / 8x8dct=1 / cqm=0 / deadzone=21,11 / fast_pskip=0 / chroma_qp_offset=-2 / threads=12 / lookahead_threads=1 / sliced_threads=0 / nr=0 / decimate=1 / interlaced=0 / bluray_compat=0 / constrained_intra=0 / bframes=5 / b_pyramid=2 / b_adapt=2 / b_bias=0 / direct=3 / weightb=1 / open_gop=0 / weightp=2 / keyint=240 / keyint_min=23 / scenecut=40 / intra_refresh=0 / rc=2pass / mbtree=0 / bitrate=8975 / ratetol=2.0 / qcomp=0.60 / qpmin=0 / qpmax=69 / qpstep=4 / cplxblur=20.0 / qblur=0.5 / ip_ratio=1.40 / pb_ratio=1.30 / aq=2:0.90
Language : English
Default : Yes
Forced : No

Audio #1
ID : 2
Format : AC-3
Format/Info : Audio Coding 3
Mode extension : CM (complete main)
Format settings, Endianness : Big
Codec ID : A_AC3
Duration : 1h 39mn
Bit rate mode : Constant
Bit rate : 448 Kbps
Channel count : 6 channels
Channel positions : Front: L C R, Side: L R, LFE
Sampling rate : 48.0 KHz
Bit depth : 16 bits
Compression mode : Lossy
Stream size : 320 MiB (4%)
Title : Dub
Language : Russian
Default : Yes
Forced : No

Audio #2
ID : 3
Format : AC-3
Format/Info : Audio Coding 3
Mode extension : CM (complete main)
Format settings, Endianness : Big
Codec ID : A_AC3
Duration : 1h 39mn
Bit rate mode : Constant
Bit rate : 448 Kbps
Channel count : 6 channels
Channel positions : Front: L C R, Side: L R, LFE
Sampling rate : 48.0 KHz
Bit depth : 16 bits
Compression mode : Lossy
Stream size : 320 MiB (4%)
Title : Kinomonija
Language : Russian
Default : No
Forced : No

Audio #3
ID : 4
Format : AC-3
Format/Info : Audio Coding 3
Mode extension : CM (complete main)
Format settings, Endianness : Big
Codec ID : A_AC3
Duration : 1h 39mn
Bit rate mode : Constant
Bit rate : 448 Kbps
Channel count : 6 channels
Channel positions : Front: L C R, Side: L R, LFE
Sampling rate : 48.0 KHz
Bit depth : 16 bits
Compression mode : Lossy
Stream size : 320 MiB (4%)
Title : OPT
Language : Russian
Default : No
Forced : No

Audio #4
ID : 5
Format : AC-3
Format/Info : Audio Coding 3
Mode extension : CM (complete main)
Format settings, Endianness : Big
Codec ID : A_AC3
Duration : 1h 39mn
Bit rate mode : Constant
Bit rate : 448 Kbps
Channel count : 6 channels
Channel positions : Front: L C R, Side: L R, LFE
Sampling rate : 48.0 KHz
Bit depth : 16 bits
Compression mode : Lossy
Stream size : 320 MiB (4%)
Title : Mihaljov
Language : Russian
Default : No
Forced : No

Audio #5
ID : 6
Format : AC-3
Format/Info : Audio Coding 3
Mode extension : CM (complete main)
Format settings, Endianness : Big
Codec ID : A_AC3
Duration : 1h 39mn
Bit rate mode : Constant
Bit rate : 640 Kbps
Channel count : 6 channels
Channel positions : Front: L C R, Side: L R, LFE
Sampling rate : 48.0 KHz
Bit depth : 16 bits
Compression mode : Lossy
Stream size : 457 MiB (6%)
Title : Eng
Language : English
Default : No
Forced : No

Text #1
ID : 7
Format : UTF-8
Codec ID : S_TEXT/UTF8
Codec ID/Info : UTF-8 Plain Text
Title : full
Language : Russian
Default : No
Forced : No

Text #2
ID : 8
Format : UTF-8
Codec ID : S_TEXT/UTF8
Codec ID/Info : UTF-8 Plain Text
Title : full
Language : English
Default : No
Forced : No

Menu
00:00:00.000 : :Chapter 01
00:02:32.068 : :Chapter 02
00:06:17.126 : :Chapter 03
00:08:34.096 : :Chapter 04
00:09:55.553 : :Chapter 05
00:12:43.804 : :Chapter 06
00:13:58.546 : :Chapter 07
00:15:16.498 : :Chapter 08
00:17:55.908 : :Chapter 09
00:20:18.592 : :Chapter 10
00:24:30.302 : :Chapter 11
00:28:09.479 : :Chapter 12
00:30:48.972 : :Chapter 13
00:32:45.838 : :Chapter 14
00:34:49.420 : :Chapter 15
00:36:04.412 : :Chapter 16
00:36:47.788 : :Chapter 17
00:37:42.843 : :Chapter 18
00:38:32.226 : :Chapter 19
00:40:14.120 : :Chapter 20
00:44:20.699 : :Chapter 21
00:46:12.770 : :Chapter 22
00:49:37.557 : :Chapter 23
00:51:06.605 : :Chapter 24
00:56:41.106 : :Chapter 25
00:59:49.127 : :Chapter 26
01:01:46.828 : :Chapter 27
01:03:00.359 : :Chapter 28
01:04:32.910 : :Chapter 29
01:06:09.548 : :Chapter 30
01:09:39.967 : :Chapter 31
01:11:03.592 : :Chapter 32
01:12:58.624 : :Chapter 33
01:15:53.173 : :Chapter 34
01:16:24.538 : :Chapter 35
01:18:05.389 : :Chapter 36
01:25:57.193 : :Chapter 37
01:27:19.025 : :Chapter 38
01:28:09.826 : :Chapter 39
01:29:21.689 : :Chapter 40
01:31:20.266 : :Chapter 41
01:33:04.412 : :Chapter 42
01:35:31.434 : :Chapter 43
01:36:15.227 : :Chapter 44


#77
При поддержке:
   
Торрент: Зарегистрирован [13 янв 2018, 18:15] Скачать торрент Магнет ссылка
Скачать торрент
[ Размер 40.76 КБ / Просмотров 1 ]
Статус:
Проверен
 
.torrent скачан: 9 раз
Размер: 7.94 ГБ (8 527 766 333 байт)
   Стать Автором раздачи
 
 
Цитата

Вернуться в Зарубежное кино (HD Video)

Кто сейчас на конференции

Сейчас эту тему просматривают: нет зарегистрированных пользователей и гости: 1