Константин Симонов. Жди меня, и я вернусь (Максим Жуковский) [2015, Документальный, HDTV 1080i]

 Статистика раздачи 
Размер: 3.52 ГБ   |  Зарегистрирован: 13 янв 2018, 17:48   |   .torrent скачан: 0 раз
Сидеров: 2  [ 0 байт/сек ]     Личеров: 0  [ 0 байт/сек ]  
  
Аватара пользователя
 
Раздал: 0 байт
Скачал: 0 байт
Ратио: Inf.
Сообщения: 109710
Стаж: 7 лет 4 месяца 6 дней

Жди меня, и я вернусь
Год выпуска: 2015
Страна: Россия
Жанр: документальный
Продолжительность: 00:52:27
Перевод: не требуется
Русские субтитры: нет
Автор сценария: Татьяна Беженар
Режиссер: Максим Жуковский
Описание: Константин Симонов вошел в историю как талантливый поэт и прозаик, звезда военной журналистики, любимец советской власти. За перипетиями его любовной драмы с Валентиной Серовой следила вся страна.
Но, тем не менее, ему многое удалось скрыть от глаз общественности. Свои архивы поэт запретил открывать спустя десятки лет после смерти. Черновики, дневники и письма классика были не доступны даже родственникам. В нашем фильме мы покажем документы из этих архивов и вместе с сыном поэта Алексеем постараемся найти ответ на вопрос: что же скрывал Константин Симонов?
Константин Симонов вошел в историю как талантливый поэт и прозаик, звезда военной журналистики, любимец советской власти. За перипетиями его любовной драмы с Валентиной Серовой следила вся страна.
Но, тем не менее, ему многое удалось скрыть от глаз общественности. Свои архивы поэт запретил открывать спустя десятки лет после смерти. Черновики, дневники и письма классика были не доступны даже родственникам. В нашем фильме мы покажем документы из этих архивов и вместе с сыном поэта Алексеем постараемся найти ответ на вопрос: что же скрывал Константин Симонов?
Его стихи печатались в каждом номере, а солдаты от руки переписывали "Жди меня" и носили в кармане гимнастерки вместо талисмана. Сын княжны Оболенской и генерала царской армии стал, пожалуй, самым знаменитым военкором, побывал на всех фронтах и был свидетелем ключевых сражений Великой Отечественной. Критики нередко отмечали, что за подвигами Симонова как военного корреспондента стоял страх перед советской властью. В фильме прозвучат воспоминания коллег Симонова – военных журналистов.
Вся страна зачитывалась его любовной лирикой. При этом он не стал закрывать в архиве письма Серовой, а напротив, уничтожил все до одного. Ради нее поэт бросил своего годовалого сына, но настоящей семьи с Серовой так и не создал. В нашем фильме дети и внуки Симонова поделятся воспоминаниями о совместной жизни поэта и актрисы.
Во время войны ему доверяли секретную информацию, а после войны отправляли в командировки за границу. Писатель-эмигрант Аркадий Львов дружил с Симоновым долгие годы. Он расскажет, что поэт перестал брать в заграничные поездки Серову.
На закате своего творческого пути Симонов сосредоточился на солдатских мемуарах. Он словно вновь оказался на войне, только здесь пришлось отвоевывать правду о ней. Но, с другой стороны, это сдружило его со многими актерами-фронтовиками, например с Анатолием Папановым, о чем расскажет дочь актера Елена. Со скандалом Симонов отстаивал кандидатуру Юрия Никулина на главную роль "Двадцать дней без войны", об этом расскажет сын актера Максим Никулин.
По мнению близких, в конце жизни он будто бы каялся за свой конформизм. О чем на самом деле он вспоминал в последние месяцы своей жизни? Что писал в дневниках и почему скрывал это так долго? К 100-летию со дня рождения Константина Симонова у зрителей фильма появится уникальный шанс вместе с главными наследниками архива – детьми Симонова от трёх браков, узнать новые факты из жизни великого поэта.
В фильме принимают участие:
Алексей Симонов, сын К. Симонова
Екатерина Симонова-Гудзенко, дочь К. Симонова
Алексей Фофлин, внук К. Симонова и В. Серовой
Марк Захаров, режиссер
Светлана Кармалита, киносценарист, вдова А. Германа
Елена Папанова, дочь А. Папанова
Максим Никулин, сын Ю. Никулина
Аркадий Львов, писатель
Никита Петров, историк
Иосиф Райхельгауз, театральный режиссер
Алексей Исаев, историк
Николай Олоновский, кинооператор
Юрий Набатов, фотокорреспондент
Елена Башкирова, бывший сотрудник музея К. А. Федина
Наталья Щелканова, директор музея К. А. Федина
Юрий Колычев, актер
Сергей Морозов, филолог

Тип релиза: HDTV 1080i
Контейнер: TS
Видео: AVC (H264), 1920x1080 (16:9), 25 fps, 8553 Kbps
Аудио 1: AC3, 48 KHz, 6 ch, 384 Kbps
Аудио 2: MP2, 48 KHz, 2 ch, 192 Kbps
Код: Выделить всё
General
ID                          : 1 (0x1)
Complete name               : I:\Жди меня, и я вернусь (2015) [HDTV 1080i].ts
Format                      : MPEG-TS
File size                   : 3.52 GiB
Duration                    : 52mn 27s
Overall bit rate mode       : Variable
Overall bit rate            : 9 610 Kbps
Video
ID                          : 305 (0x131)
Menu ID                     : 20105 (0x4E89)
Format                      : AVC
Format/Info                 : Advanced Video Codec
Format profile              : [email protected]
Format settings, CABAC      : Yes
Format settings, ReFrames   : 4 frames
Codec ID                    : 27
Duration                    : 52mn 27s
Bit rate                    : 8 553 Kbps
Width                       : 1 920 pixels
Height                      : 1 080 pixels
Display aspect ratio        : 16:9
Frame rate                  : 25.000 fps
Standard                    : Component
Color space                 : YUV
Chroma subsampling          : 4:2:0
Bit depth                   : 8 bits
Scan type                   : Interlaced
Scan order                  : Top Field First
Bits/(Pixel*Frame)          : 0.165
Stream size                 : 3.13 GiB (89%)
Color range                 : Limited
Color primaries             : BT.709
Transfer characteristics    : BT.709
Matrix coefficients         : BT.709
Audio #1
ID                          : 405 (0x195)
Menu ID                     : 20105 (0x4E89)
Format                      : AC-3
Format/Info                 : Audio Coding 3
Mode extension              : CM (complete main)
Format settings, Endianness : Big
Codec ID                    : 6
Duration                    : 52mn 27s
Bit rate mode               : Constant
Bit rate                    : 384 Kbps
Channel(s)                  : 6 channels
Channel positions           : Front: L C R, Side: L R, LFE
Sampling rate               : 48.0 KHz
Compression mode            : Lossy
Delay relative to video     : -80ms
Stream size                 : 144 MiB (4%)
Language                    : Russian
Audio #2
ID                          : 406 (0x196)
Menu ID                     : 20105 (0x4E89)
Format                      : MPEG Audio
Format version              : Version 1
Format profile              : Layer 2
Codec ID                    : 3
Duration                    : 52mn 27s
Bit rate mode               : Constant
Bit rate                    : 192 Kbps
Channel(s)                  : 2 channels
Sampling rate               : 48.0 KHz
Compression mode            : Lossy
Delay relative to video     : -80ms
Stream size                 : 72.0 MiB (2%)
Language                    : Russian
Text
ID                          : 407 (0x197)-888
Menu ID                     : 20105 (0x4E89)
Format                      : Teletext Subtitle
Language                    : Russian

Раздача от группы
   
Торрент: Зарегистрирован [13 янв 2018, 17:48] Скачать торрент Магнет ссылка
Скачать торрент
[ Размер 18.09 КБ / Просмотров 3 ]
Статус:
Проверен
 
.torrent скачан: 0 раз
Размер: 3.52 ГБ (3 780 463 612 байт)
   Стать Автором раздачи
 
 
Цитата

Вернуться в Личности

Кто сейчас на конференции

Сейчас эту тему просматривают: нет зарегистрированных пользователей и гости: 1