One Direction: Это мы / One Direction: This Is Us (Морган Сперлок / Morgan Spurlock) [2013, документальный, музыкальный, биография, BDRip 720p] Расширенная версия Original Eng + Sub (Rus, Eng)

 Статистика раздачи 
Размер: 6.71 ГБ   |  Зарегистрирован: 13 янв 2018, 17:31   |   .torrent скачан: 0 раз
Сидеров: 5  [ 0 байт/сек ]     Личеров: 3  [ 0 байт/сек ]  
  
Аватара пользователя
 
Раздал: 0 байт
Скачал: 0 байт
Ратио: Inf.
Сообщения: 109709
Стаж: 7 лет 5 месяцев 10 дней

One Direction: Это мы / One Direction: This Is Us / Расширенная версия
Год выпуска: 2013
Страна: Великобритания
Жанр: документальный, музыкальный, биография
Продолжительность: 01:46:40
Перевод: Субтитры (официальные)
Русские субтитры: есть
Оригинальная дорожка: английский
Режиссер: Морган Сперлок / Morgan Spurlock
Описание: Зрители отправятся в концертный тур вместе с участниками популярного английский бойз-бенда One Direction — обладателя наград BRIT Awards и трех MTV Video Music Award. Группа получила всемирную известность после музыкального конкурса The X-Factor. Их дебютный альбом «Up All Night» стал номером один в 15 странах мира.
Доп. информация: Делал для себя, решил поделиться.
Сэмпл: Скачать
Кинопоиск
IMDB
Тип релиза: BDRip 720p (исходник BluRay Remux с другого трекера)
Контейнер: MKV
Видео: H.264, 1280x692, 1.85:1, ~7500 kbps, 23.976 fps
Аудио: DTS, 6 ch, 48 kHz, 1509 kbps английский (ядро DTS-HD MA)
Субтитры: русские, английские
Формат субтитров: softsub (SRT)
Разбивка на главы: есть
General
Unique ID : 245480771391439706466344839689546394932 (0xB8ADE0788C18D922992EAAA9B8266D34)
Complete name : One Direction - This Is Us.mkv
Format : Matroska
Format version : Version 2
File size : 6.71 GiB
Duration : 1h 46mn
Overall bit rate : 9 010 Kbps
Encoded date : UTC 2014-01-04 09:57:42
Writing application : mkvmerge v5.8.0 ('No Sleep / Pillow') built on Sep 2 2012 15:37:04
Writing library : libebml v1.2.3 + libmatroska v1.3.0
Video
ID : 1
Format : AVC
Format/Info : Advanced Video Codec
Format profile : [email protected]
Format settings, CABAC : Yes
Format settings, ReFrames : 9 frames
Codec ID : V_MPEG4/ISO/AVC
Duration : 1h 46mn
Bit rate : 7 500 Kbps
Width : 1 280 pixels
Height : 692 pixels
Display aspect ratio : 1.85:1
Frame rate mode : Constant
Frame rate : 23.976 fps
Color space : YUV
Chroma subsampling : 4:2:0
Bit depth : 8 bits
Scan type : Progressive
Bits/(Pixel*Frame) : 0.353
Stream size : 5.46 GiB (81%)
Writing library : x264 core 138 r2358 9e941d1
Encoding settings : cabac=1 / ref=9 / deblock=1:0:0 / analyse=0x3:0x133 / me=umh / subme=10 / psy=1 / psy_rd=1.00:0.00 / mixed_ref=1 / me_range=16 / chroma_me=1 / trellis=2 / 8x8dct=1 / cqm=0 / deadzone=21,11 / fast_pskip=0 / chroma_qp_offset=-2 / threads=6 / lookahead_threads=1 / sliced_threads=0 / nr=0 / decimate=1 / interlaced=0 / bluray_compat=0 / constrained_intra=0 / bframes=5 / b_pyramid=2 / b_adapt=2 / b_bias=0 / direct=3 / weightb=1 / open_gop=0 / weightp=2 / keyint=240 / keyint_min=23 / scenecut=40 / intra_refresh=0 / rc_lookahead=50 / rc=2pass / mbtree=1 / bitrate=7500 / ratetol=1.0 / qcomp=0.60 / qpmin=0 / qpmax=69 / qpstep=4 / cplxblur=20.0 / qblur=0.5 / ip_ratio=1.40 / aq=1:1.00
Language : English
Default : Yes
Forced : No
Audio
ID : 2
Format : DTS
Format/Info : Digital Theater Systems
Mode : 16
Format settings, Endianness : Big
Codec ID : A_DTS
Duration : 1h 46mn
Bit rate mode : Constant
Bit rate : 1 509 Kbps
Channel count : 6 channels
Channel positions : Front: L C R, Side: L R, LFE
Sampling rate : 48.0 KHz
Bit depth : 24 bits
Compression mode : Lossy
Stream size : 1.12 GiB (17%)
Language : English
Default : Yes
Forced : No
Text #1
ID : 3
Format : UTF-8
Codec ID : S_TEXT/UTF8
Codec ID/Info : UTF-8 Plain Text
Language : Russian
Default : Yes
Forced : No
Text #2
ID : 4
Format : UTF-8
Codec ID : S_TEXT/UTF8
Codec ID/Info : UTF-8 Plain Text
Language : English
Default : No
Forced : No
Menu
00:00:00.000 : en:00:00:00.000
00:05:49.057 : en:00:05:49.057
00:15:22.338 : en:00:15:22.338
00:20:16.549 : en:00:20:16.549
00:33:28.256 : en:00:33:28.256
00:38:57.710 : en:00:38:57.710
00:45:06.787 : en:00:45:06.787
00:53:08.352 : en:00:53:08.352
01:01:31.354 : en:01:01:31.354
01:06:04.252 : en:01:06:04.252
01:11:15.146 : en:01:11:15.146
01:13:35.828 : en:01:13:35.828
01:20:57.769 : en:01:20:57.769
01:25:55.525 : en:01:25:55.525
01:31:25.605 : en:01:31:25.605
01:36:26.781 : en:01:36:26.781
   
Торрент: Зарегистрирован [13 янв 2018, 17:31] Скачать торрент Магнет ссылка
Скачать торрент
[ Размер 17.35 КБ / Просмотров 8 ]
Статус:
Проверен
 
.torrent скачан: 0 раз
Размер: 6.71 ГБ (7 208 701 891 байт)
   Стать Автором раздачи
 
 
Цитата

Вернуться в Личности

Кто сейчас на конференции

Сейчас эту тему просматривают: нет зарегистрированных пользователей и гости: 1