Роналду / Ronaldo (Anthony Wonke) [2015, Великобритания, документальный, спорт, BDRip 1080p] MVO + Sub Rus, Eng + Original Eng

 Статистика раздачи 
Размер: 11.3 ГБ   |  Зарегистрирован: 13 янв 2018, 17:30   |   .torrent скачан: 0 раз
Сидеров: 0  [ 0 байт/сек ]     Личеров: 0  [ 0 байт/сек ]  
  
Аватара пользователя
 
Раздал: 0 байт
Скачал: 0 байт
Ратио: Inf.
Сообщения: 112441
Стаж: 7 лет 7 месяцев 14 дней

Роналду / Ronaldo
Страна: Великобритания
Студия: We Came, We Saw, We Conquered Studios
Жанр: документальный, спорт
Год выпуска: 2015
Продолжительность: 01:32:29
Перевод: Профессиональный (многоголосый закадровый) "Эй Би Видео" по заказу "Первого Канала"
Субтитры: Rus, Eng
Оригинальная аудиодорожка: английский
Режиссер: Энтони Вонк / Anthony Wonke
В ролях: Криштиану Роналду, Дэвид Моррисси, Рио Фердинанд, Флорентино Перес, Dolores Aveiro, Hugo Aveiro, Georgie Bingham, Adrian Clarke, ClAudia Garcia, David Alvarez Izquierdo, Rhiannon Jones, Nelvino Lima, Miguel Lopes Marques, Rafael Navarrete MartInez, Carla Mendes, Jorge Mendes, Jorge Mendes, Miguel PaixAo, Ricardo Regufe, Jose Semedo, Mike Sewell
Описание: Этот фильм снимался на протяжении 14 месяцев с уникальным доступом во внутренний круг мужчин и спорта, это первый официальный фильм одного из самых знаменитых фигур в футболе. Впервые мы проникнем за закрытые двери футболиста, жизнь семьи, друзей. Глубокие разговоры, современные футбольные кадры из архива, этот фильм даёт удивительную проницательность в спортивной и личной жизни трёхкратного обладателя "Золотой мяч" Криштиану Роналду на пике своей карьеры.

Тип релиза: BDRip 1080p
Контейнер: MKV
Видео: MPEG-4 AVC, 14.9 Mбит/с, 1920x1040, 23,976 fps
Аудио: Rus, DTS, 1510 kb/s (6 ch), 48 kHz
Аудио 2: Eng, DTS, 768 kb/s (6 ch), 48 kHz
Формат субтитров: softsub (SRT)
x264 [info]: frame I:695 Avg QP:15.92 size:183309
x264 [info]: frame P:34068 Avg QP:17.64 size:107386
x264 [info]: frame B:98279 Avg QP:18.74 size: 68885
Format : Matroska
Format version : Version 4 / Version 2
File size : 11.3 GiB
Duration : 1h 32mn
Overall bit rate : 17.5 Mbps
Movie name : Роналду. (Tonik)
Encoded date : UTC 2016-06-16 16:51:10
Writing application : mkvmerge v7.1.0 ('Good Love') 64bit built on Jul 27 2014 13:06:55
Writing library : libebml v1.3.0 + libmatroska v1.4.1
_STATISTICS_WRITING_APP : mkvmerge v7.1.0 ('Good Love') 64bit built on Jul 27 2014 13:06:55
_STATISTICS_WRITING_DATE_UTC : 2016-06-16 16:51:10
_STATISTICS_TAGS : BPS DURATION NUMBER_OF_FRAMES NUMBER_OF_BYTES
DURATION : 01:32:29.131000000
NUMBER_OF_FRAMES : 520231
NUMBER_OF_BYTES : 1046704840
Video
ID : 1
Format : AVC
Format/Info : Advanced Video Codec
Format profile : High@L4.1
Format settings, CABAC : Yes
Format settings, ReFrames : 4 frames
Codec ID : V_MPEG4/ISO/AVC
Duration : 1h 32mn
Bit rate : 14.9 Mbps
Width : 1 920 pixels
Height : 1 040 pixels
Display aspect ratio : 1.85:1
Frame rate mode : Constant
Frame rate : 23.976 fps
Color space : YUV
Chroma subsampling : 4:2:0
Bit depth : 8 bits
Scan type : Progressive
Bits/(Pixel*Frame) : 0.311
Stream size : 9.61 GiB (85%)
Writing library : x264 core 148 r2597.9 1808e2a VietHD_Custom_64
Encoding settings : cabac=1 / ref=4 / deblock=1:-3:-3 / analyse=0x3:0x133 / me=umh / subme=10 / psy=1 / fade_compensate=0.00 / psy_rd=1.00:0.00 / mixed_ref=1 / me_range=24 / chroma_me=1 / trellis=2 / 8x8dct=1 / cqm=0 / deadzone=21,11 / fast_pskip=0 / chroma_qp_offset=-2 / threads=12 / lookahead_threads=3 / sliced_threads=0 / nr=0 / decimate=0 / interlaced=0 / bluray_compat=0 / constrained_intra=0 / fgo=0 / bframes=11 / b_pyramid=2 / b_adapt=2 / b_bias=0 / direct=3 / weightb=1 / open_gop=0 / weightp=2 / keyint=250 / keyint_min=23 / scenecut=40 / intra_refresh=0 / rc_lookahead=60 / rc=crf / mbtree=0 / crf=18.3000 / qcomp=0.65 / qpmin=0:0:0 / qpmax=69:69:69 / qpstep=4 / vbv_maxrate=62500 / vbv_bufsize=78125 / crf_max=0.0 / nal_hrd=none / filler=0 / ip_ratio=1.30 / pb_ratio=1.20 / aq=3:0.80 / aq-sensitivity=10.00 / aq-factor=1.00:1.00:1.00 / aq2=0 / aq3=0 / zones=3194,3345,crf=16/6239,6322,crf=16
Language : English
Default : Yes
Forced : No
_STATISTICS_WRITING_APP : mkvmerge v7.1.0 ('Good Love') 64bit built on Jul 27 2014 13:06:55
_STATISTICS_WRITING_DATE_UTC : 2016-06-16 16:51:10
_STATISTICS_TAGS : BPS DURATION NUMBER_OF_FRAMES NUMBER_OF_BYTES
DURATION : 01:32:28.960000000
NUMBER_OF_FRAMES : 133042
NUMBER_OF_BYTES : 10555803921
Audio #1
ID : 2
Format : DTS
Format/Info : Digital Theater Systems
Mode : 16
Format settings, Endianness : Big
Codec ID : A_DTS
Duration : 1h 32mn
Bit rate mode : Constant
Bit rate : 1 509 Kbps
Channel(s) : 6 channels
Channel positions : Front: L C R, Side: L R, LFE
Sampling rate : 48.0 KHz
Bit depth : 24 bits
Compression mode : Lossy
Stream size : 998 MiB (9%)
Title : Эй Би Видео
Language : Russian
Default : Yes
Forced : No
Audio #2
ID : 3
Format : DTS
Format/Info : Digital Theater Systems
Mode : 16
Format settings, Endianness : Big
Codec ID : A_DTS
Duration : 1h 32mn
Bit rate mode : Constant
Bit rate : 768 Kbps
Channel(s) : 6 channels
Channel positions : Front: L C R, Side: L R, LFE
Sampling rate : 48.0 KHz
Bit depth : 24 bits
Compression mode : Lossy
Stream size : 508 MiB (4%)
Language : English
Default : No
Forced : No
Text #1
ID : 4
Format : UTF-8
Codec ID : S_TEXT/UTF8
Codec ID/Info : UTF-8 Plain Text
Language : Russian
Default : No
Forced : No
Text #2
ID : 5
Format : UTF-8
Codec ID : S_TEXT/UTF8
Codec ID/Info : UTF-8 Plain Text
Language : English
Default : No
Forced : No
Text #3
ID : 6
Format : UTF-8
Codec ID : S_TEXT/UTF8
Codec ID/Info : UTF-8 Plain Text
Language : English
Default : No
Forced : No
Menu
00:00:00.000 : en:00:00:00.000
00:06:53.913 : en:00:06:53.913
00:15:05.404 : en:00:15:05.404
00:21:43.928 : en:00:21:43.928
00:29:43.657 : en:00:29:43.657
00:38:14.125 : en:00:38:14.125
00:46:43.217 : en:00:46:43.217
00:52:36.653 : en:00:52:36.653
01:01:06.121 : en:01:01:06.121
01:07:11.736 : en:01:07:11.736
01:15:42.037 : en:01:15:42.037
01:24:28.814 : en:01:24:28.814
Перекачайте, замена файла.
Не забывайте говорить Спасибо. Не уходите с раздачи!   
Торрент: Зарегистрирован [13 янв 2018, 17:30] Для скачивания .torrent
необходима регистрация
Или скачать с помощью
MediaGet
Статус:
Проверен
 
.torrent скачан: 0 раз
Размер: 11.3 ГБ (12 137 772 774 байт)
   Стать Автором раздачи
   
Цитата

Вернуться в Личности

Кто сейчас на конференции

Сейчас эту тему просматривают: нет зарегистрированных пользователей и гости: 1