Джастин Бибер: Никогда не говори никогда / Justin Bieber: Never Say Never (Джон М. Чу / Jon Chu) [2011, США, документальный, музыка, BDRip 720p] DVO + VO + Original + Subs

 Статистика раздачи 
Размер: 5.98 ГБ   |  Зарегистрирован: 13 янв 2018, 17:30   |   .torrent скачан: 0 раз
Сидеров: 0  [ 0 байт/сек ]     Личеров: 0  [ 0 байт/сек ]  
  
Аватара пользователя
 
Раздал: 0 байт
Скачал: 0 байт
Ратио: Inf.
Сообщения: 103047
Стаж: 7 лет 3 месяца 16 дней


Джастин Бибер: Никогда не говори никогда / Justin Bieber: Never Say Never
Страна: США
Жанр: документальный, музыка
Год выпуска: 2011
Продолжительность: 01:45:08
Перевод: Любительский (двухголосый закадровый) /ST VIDEO/
Перевод: Любительский (одноголосый закадровый)
Русские субтитры: есть (Перевод - Синхито) [два варианта: полные и на непереведенные надписи]
Режиссер: Джон М. Чу / Jon Chu
В ролях: Джастин Бибер, Boys II Men, Майли Сайрус, Шон Кингстон, Лудакрис, Джейден Смит, Ашер, Дайан Дэйл, Брюс Дэйл, Райан Гуд
Описание: Фильм рассказывает о том, как начинал свою карьеру Джастин Бибер. Молодой парень из простой семьи начинает обретать славу, выложив видеоролик в интернет…

Качество видео: BDRip 720p (CHD)
Формат видео: MKV
Видео кодек: x264
Аудио кодек: AC3, DTS
Видео: MPEG-4 AVC Video 1280x720 (16:9), 23.976 fps, ~5 986 Kbps
Аудио : (Rus) Dolby Digital Audio / 5.1 ch / 48 kHz / ~448 kbps (Роли озвучивали: Emnily, Синхито)
Аудио : (Rus) Dolby Digital Audio / 2.0 / 48 kHz / 192 kbps
Аудио : (Eng) DTS / 5.1 / 48 kHz / 1 510 Kbps / 24-bit

Код: Выделить всё
General
Complete name                    : L:\  -= MussiC =-\Clips\Джастин Бибер. Никогда не говори никогда 720p (2011. Justin Bieber. Never Say Never).mkv
Format                           : Matroska
File size                        : 5.98 GiB
Duration                         : 1h 45mn
Overall bit rate                 : 8 136 Kbps
Encoded date                     : UTC 2011-06-11 13:58:15
Writing application              : mkvmerge v4.0.0 ('The Stars were mine') сборка от Jun  6 2010 16:18:42
Writing library                  : libebml v1.0.0 + libmatroska v1.0.0
Video
ID                               : 1
Format                           : AVC
Format/Info                      : Advanced Video Codec
Format profile                   : [email protected]
Format settings, CABAC           : Yes
Format settings, ReFrames        : 9 frames
Format settings, GOP             : M=1, N=32
Muxing mode                      : Container [email protected]
Codec ID                         : V_MPEG4/ISO/AVC
Duration                         : 1h 45mn
Bit rate                         : 5 986 Kbps
Width                            : 1 280 pixels
Height                           : 720 pixels
Display aspect ratio             : 16:9
Frame rate                       : 23.976 fps
Color space                      : YUV
Chroma subsampling               : 4:2:0
Bit depth                        : 8 bits
Scan type                        : Progressive
Bits/(Pixel*Frame)               : 0.271
Stream size                      : 4.28 GiB (72%)
Title                            : Justin.Bieber.Never.Say.Never.2011.BluRay.720p.DTS.x264-CHD
Writing library                  : x264 core 114 r1913 5fd3dce
Encoding settings                : cabac=1 / ref=9 / deblock=1:-3:-3 / analyse=0x3:0x113 / me=umh / subme=9 / psy=1 / psy_rd=1.10:0.15 / mixed_ref=1 / me_range=32 / chroma_me=1 / trellis=2 / 8x8dct=1 / cqm=2 / deadzone=21,11 / fast_pskip=0 / chroma_qp_offset=-2 / threads=12 / sliced_threads=0 / nr=0 / decimate=1 / interlaced=0 / constrained_intra=0 / bframes=6 / b_pyramid=2 / b_adapt=2 / b_bias=0 / direct=3 / weightb=1 / open_gop=0 / weightp=2 / keyint=250 / keyint_min=23 / scenecut=40 / intra_refresh=0 / rc_lookahead=60 / rc=2pass / mbtree=1 / bitrate=5986 / ratetol=1.0 / qcomp=0.60 / qpmin=1 / qpmax=63 / qpstep=4 / cplxblur=20.0 / qblur=0.5 / vbv_maxrate=40000 / vbv_bufsize=30000 / nal_hrd=none / ip_ratio=1.40 / aq=1:0.80
Language                         : English
Audio #1
ID                               : 2
Format                           : AC-3
Format/Info                      : Audio Coding 3
Mode extension                   : CM (complete main)
Codec ID                         : A_AC3
Duration                         : 1h 45mn
Bit rate mode                    : Constant
Bit rate                         : 448 Kbps
Channel(s)                       : 6 channels
Channel positions                : Front: L C R, Side: L R, LFE
Sampling rate                    : 48.0 KHz
Bit depth                        : 16 bits
Stream size                      : 337 MiB (6%)
Title                            : MVO (R5)
Language                         : Russian
Audio #2
ID                               : 3
Format                           : AC-3
Format/Info                      : Audio Coding 3
Mode extension                   : CM (complete main)
Codec ID                         : A_AC3
Duration                         : 1h 45mn
Bit rate mode                    : Constant
Bit rate                         : 192 Kbps
Channel(s)                       : 2 channels
Channel positions                : Front: L R
Sampling rate                    : 48.0 KHz
Bit depth                        : 16 bits
Stream size                      : 144 MiB (2%)
Title                            : VO
Language                         : Russian
Audio #3
ID                               : 6
Format                           : DTS
Format/Info                      : Digital Theater Systems
Codec ID                         : A_DTS
Duration                         : 1h 45mn
Bit rate mode                    : Constant
Bit rate                         : 1 510 Kbps
Channel(s)                       : 6 channels
Channel positions                : Front: L C R, Side: L R, LFE
Sampling rate                    : 48.0 KHz
Bit depth                        : 24 bits
Stream size                      : 1.11 GiB (19%)
Title                            : Original
Language                         : English
Text #1
ID                               : 4
Format                           : UTF-8
Codec ID                         : S_TEXT/UTF8
Codec ID/Info                    : UTF-8 Plain Text
Title                            : full
Language                         : Russian
Text #2
ID                               : 5
Format                           : UTF-8
Codec ID                         : S_TEXT/UTF8
Codec ID/Info                    : UTF-8 Plain Text
Title                            : forced
Language                         : Russian
   
Торрент: Зарегистрирован [13 янв 2018, 17:30] Скачать торрент Магнет ссылка
Скачать торрент
[ Размер 30.42 КБ / Просмотров 1 ]
Статус:
Проверен
 
.torrent скачан: 0 раз
Размер: 5.98 ГБ (6 416 243 662 байт)
   Стать Автором раздачи
 
 
Цитата
  • Похожие торренты
    Ответы
    Просмотры
    Последнее сообщение

Вернуться в Личности

Кто сейчас на конференции

Сейчас эту тему просматривают: нет зарегистрированных пользователей и гости: 1