Надежда Румянцева. Одна из девчат [2008, Документальный, HDTV 1080i]

 Статистика раздачи 
Размер: 3.06 ГБ   |  Зарегистрирован: 13 янв 2018, 17:30   |   .torrent скачан: 0 раз
Сидеров: 1  [ 0 байт/сек ]     Личеров: 1  [ 0 байт/сек ]  
  
Аватара пользователя
 
Раздал: 0 байт
Скачал: 0 байт
Ратио: Inf.
Сообщения: 109709
Стаж: 7 лет 5 месяцев 11 дней

Надежда Румянцева. Одна из девчат
Дата/Год выпуска: 2008
Страна: Россия
Жанр: Документальный
Продолжительность: 00:50:35
Перевод: Не требуется
Русские субтитры: нет
Оригинальная аудиодорожка: русский
Телеканал: Первый HD
Описание: Надежда Румянцева после школы поступила в государственный институт театрального искусства имени Луначарского. На экзаменах прочла монолог Фамусова, что и определило её судьбу. Актриса и педагог Ольга Пыжова возлагала на Румянцеву большие надежды, поэтому взяла её с собой во ВГИК, куда со временем перешла работать.
Надежда Румянцева в итоге закончила Всесоюзный государственный институт кинематографии, но к тому времени она уже была сложившейся актрисой на амплуа «травести». Она уже много работала на сцене Центрального детского театра и снялась в фильмах «Навстречу жизни» и «Алёша Птицын вырабатывает характер». После кинофильма «Королева бензоколонки» все маленькие курносые девчонки узнали, что и они могут стать кинозвёздами.
В 1955 году Надежда Румянцева поступила на службу в Театр-студию киноактёра. Через 6 лет она снялась в фильме «Девчата», который принёс ей мировую славу. После «Девчат» снималась ещё в общей сложности в 24 фильмах. Озвучивала несколько киноролей: её голосом говорит Нина в «Кавказской пленнице» и Николь в «Как украсть миллион».
В конце 1960-х на длительное время перестала сниматься в кино, поскольку жила за границей, сопровождая в зарубежных командировках своего мужа, дипломата Вилли Хштояна. Дочь Карина родилась в Малайзии.
После возвращения в СССР удачно сложилась карьера на телевидении: каждое воскресное утро телевизионный «Будильник», ведущей которого была Надежда Васильевна, будил тысячи советских мальчишек и девчонок. Принимала участие в озвучивании общеизвестных в СССР мультипликационных фильмов «38 попугаев», «Привет мартышке», «Бабушка удава». Снялась в эпизодических ролях ещё в нескольких кинокартинах, продолжила озвучивать фильмы.
Доп. информация:
В фильме принимают участие дочь Карина Хштоян, актеры и режиссеры, использованы
фрагменты передач, интервью и фильмов с участием Надежды Румянцевой.
Сэмпл: http://sendfile.su/1194236
качество: HDTV 1080i
формат: TS
Видео: AVC, 1920x1080, 16:9, 7651 kbps, 25 fps, 0.148 bpp
Аудио: MPEG audio layer 2, 192 kbps, 48 kHz, 2 ch
Аудио 2: AC-3, 348 kbps, 48 kHz, 6 ch
Код: Выделить всё
General
ID                                       : 1 (0x1)
Complete name                            : I:\TV I\ХРень\[2008] Надежда Румянцева. Одна из девчат.ts
Format                                   : MPEG-TS
File size                                : 3.06 GiB
Duration                                 : 50mn 35s
Overall bit rate                         : 8 661 Kbps
Video
ID                                       : 205 (0xCD)
Menu ID                                  : 1 (0x1)
Format                                   : AVC
Format/Info                              : Advanced Video Codec
Format profile                           : [email protected]
Format settings, CABAC                   : Yes
Format settings, ReFrames                : 4 frames
Codec ID                                 : 27
Duration                                 : 50mn 35s
Bit rate                                 : 7 651 Kbps
Width                                    : 1 920 pixels
Height                                   : 1 080 pixels
Display aspect ratio                     : 16:9
Frame rate                               : 25.000 fps
Standard                                 : Component
Color space                              : YUV
Chroma subsampling                       : 4:2:0
Bit depth                                : 8 bits
Scan type                                : Interlaced
Scan order                               : Top Field First
Bits/(Pixel*Frame)                       : 0.148
Stream size                              : 2.70 GiB (88%)
Color primaries                          : BT.709-5, BT.1361, IEC 61966-2-4, SMPTE RP177
Transfer characteristics                 : BT.709-5, BT.1361
Matrix coefficients                      : BT.709-5, BT.1361, IEC 61966-2-4 709, SMPTE RP177
Audio #1
ID                                       : 305 (0x131)
Menu ID                                  : 1 (0x1)
Format                                   : MPEG Audio
Format version                           : Version 1
Format profile                           : Layer 2
Codec ID                                 : 3
Duration                                 : 50mn 35s
Bit rate mode                            : Constant
Bit rate                                 : 192 Kbps
Channel(s)                               : 2 channels
Sampling rate                            : 48.0 KHz
Compression mode                         : Lossy
Stream size                              : 69.5 MiB (2%)
Language                                 : Russian
Audio #2
ID                                       : 405 (0x195)
Menu ID                                  : 1 (0x1)
Format                                   : AC-3
Format/Info                              : Audio Coding 3
Mode extension                           : CM (complete main)
Codec ID                                 : 6
Duration                                 : 50mn 35s
Bit rate mode                            : Constant
Bit rate                                 : 384 Kbps
Channel(s)                               : 6 channels
Channel positions                        : Front: L C R, Side: L R, LFE
Sampling rate                            : 48.0 KHz
Bit depth                                : 16 bits
Compression mode                         : Lossy
Stream size                              : 139 MiB (4%)
Language                                 : Russian
   
Торрент: Зарегистрирован [13 янв 2018, 17:30] Скачать торрент Магнет ссылка
Скачать торрент
[ Размер 15.8 КБ / Просмотров 1 ]
Статус:
Проверен
 
.torrent скачан: 0 раз
Размер: 3.06 ГБ (3 286 321 780 байт)
   Стать Автором раздачи
 
 
Цитата

Вернуться в Личности

Кто сейчас на конференции

Сейчас эту тему просматривают: нет зарегистрированных пользователей и гости: 1