Мне нравится… Алла Пугачева [2016, Документальный, HDTV 1080i]

 Статистика раздачи 
Размер: 3.3 ГБ   |  Зарегистрирован: 13 янв 2018, 17:30   |   .torrent скачан: 4 раз
Сидеров: 2  [ 0 байт/сек ]     Личеров: 3  [ 0 байт/сек ]  
  
Аватара пользователя
 
Раздал: 0 байт
Скачал: 0 байт
Ратио: Inf.
Сообщения: 109706
Стаж: 7 лет 6 месяцев 9 дней

Мне нравится… Алла Пугачева
Год выпуска: 2016
Страна: Россия
Жанр: Документальный
Продолжительность: 00:51:55
Перевод: Не требуется
Русские субтитры: нет
Описание: Про Аллу Борисовну Пугачеву в откровенных интервью расскажут ее друзья и близкие: Максим Галкин, Игорь Николаев, Дмитрий Иванов, Дима Билан, Евгений Миронов и другие. Михаил Жванецкий о Пугачевой серьезно: «Господи, все мы понимаем, как глубока и значительна классическая музыка, но властвует легкая, потому что легкая музыка характеризует эпоху. А Пугачева властвует в легкой музыке. Буквы сохраняют нацию, а ноты сохраняют мир, потому что ноты пересекают границы мгновенно. В легкой музыке нуждаются все, без нее жить не могут. Люди пилят, варят сталь под Пугачеву. Голос Аллы остается в ушах навсегда. А в душе остается ее крик – крик женщины. Потому что свобода – это женщина, молодость – это женщина, мир, а не война – это женщина, и, главное, возможность любви для появления людей на земле – это женщина. Голос Аллы – это зов женщины нашей страны... Она живет так, как ей нравится. Женщина должна быть такой. Миллионы любят ее. Кого хочет – любит она. Остальные известны постольку, поскольку они имеют к ней отношение».
Тип релиза: HDTV 1080i
Контейнер: TS
Доп. информация: Релиз -

Рип чистый. Без посторонних надписей. Выкладывается как есть.
Качество: HDTV 1080i
Контейнер: TS
Видео кодек: AVC
Аудио кодек: MP2
Видео: 1920x1080 (16:9) 25.000 fps 8 443 Kbps, 0.166 bit/pixel
Аудио: MP2 192 Kbps, 2 channels


Код: Выделить всё
General
ID                          : 1 (0x1)
Complete name               : D:\Мне нравится… Алла Пугачева  (2016, Документальный, HDTV 1080i) (MYDIMKA).ts
Format                      : MPEG-TS
File size                   : 3.30 GiB
Duration                    : 51mn 55s
Overall bit rate mode       : Variable
Overall bit rate            : 9 086 Kbps
Video
ID                          : 67 (0x43)
Menu ID                     : 1 (0x1)
Format                      : AVC
Format/Info                 : Advanced Video Codec
Format profile              : [email protected]
Format settings, CABAC      : Yes
Format settings, ReFrames   : 3 frames
Codec ID                    : 27
Duration                    : 51mn 55s
Bit rate                    : 8 443 Kbps
Width                       : 1 920 pixels
Height                      : 1 080 pixels
Display aspect ratio        : 16:9
Frame rate                  : 25.000 fps
Standard                    : Component
Color space                 : YUV
Chroma subsampling          : 4:2:0
Bit depth                   : 8 bits
Scan type                   : Interlaced
Scan order                  : Top Field First
Bits/(Pixel*Frame)          : 0.163
Stream size                 : 3.06 GiB (93%)
Color range                 : Limited
Color primaries             : BT.709
Transfer characteristics    : BT.709
Matrix coefficients         : BT.709
Audio
ID                          : 68 (0x44)
Menu ID                     : 1 (0x1)
Format                      : MPEG Audio
Format version              : Version 1
Format profile              : Layer 2
Codec ID                    : 3
Duration                    : 51mn 55s
Bit rate mode               : Constant
Bit rate                    : 192 Kbps
Channel(s)                  : 2 channels
Sampling rate               : 48.0 KHz
Compression mode            : Lossy
Stream size                 : 71.3 MiB (2%)
Language                    : Russian
   
Торрент: Зарегистрирован [13 янв 2018, 17:30] Скачать торрент Магнет ссылка
Скачать торрент
[ Размер 17.02 КБ / Просмотров 20 ]
Статус:
Проверен
 
.torrent скачан: 4 раз
Размер: 3.3 ГБ (3 538 615 900 байт)
   Стать Автором раздачи
 
 
Цитата

Вернуться в Личности

Кто сейчас на конференции

Сейчас эту тему просматривают: нет зарегистрированных пользователей и гости: 1