Вячеслав Зайцев. Всегда в моде (Николай Викторов) [2013, Документальный, HDTV 1080i]

 Статистика раздачи 
Размер: 2.79 ГБ   |  Зарегистрирован: 13 янв 2018, 17:30   |   .torrent скачан: 0 раз
Сидеров: 1  [ 0 байт/сек ]     Личеров: 0  [ 0 байт/сек ]  
  
Аватара пользователя
 
Раздал: 0 байт
Скачал: 0 байт
Ратио: Inf.
Сообщения: 112441
Стаж: 7 лет 7 месяцев 14 дней

Вячеслав Зайцев. Всегда в моде
Год выпуска: 2013
Страна: Россия
Студия: Красный квадрат
Жанр: Документальный
Продолжительность: 00:44:55
Перевод: Не требуется
Русские субтитры: нет
Режиссер: Николай Викторов
Описание: О Славе Зайцеве заговорили в 60-е годы. Популярный в то время в Советском Союзе лозунг "Догнать и перегнать Америку!" обязывал ко многому. Обгонять надо было во всех областях, чиновники скрепя сердце дали отмашку - и в СССР появилась мода. А вместе с ней неудобный человек Слава Зайцев. Ему тогда не было и тридцати, он свято верил в коммунизм и был свободным человеком. Свободным в выборе цвета, покроя, текстиля – свободным в творчестве. Начинающий модельер казался опасным. Боялись, что он совершит "прыжок Нуреева" и останется за границей. И вот ему 75. Став невероятно популярным, "красный Диор" десятки раз мог навсегда уехать из страны. Но, к удивлению властей, оказался пламенным патриотом. Он одевал обычных людей и звёзд в Советском Союзе и в России. Его работы находятся в частных коллекциях на родине и за рубежом. Обычное знакомство с ним часто перерастает в дружбу. Первый советский кутюрье и сейчас каждый день на работе – молод душой, как и в прежние годы. Мы увидим, как Тамара Гвердцители примеряет созданное им платье, как Зайцев принимает зачет у своих учениц, студенток Лаборатории моды. Он проведет нас по своей уникальной галерее, где хранятся сотни роскошных произведений дизайнерского искусства – все создано им и его помощниками. Мы побываем в доме Зайцева, который больше похож на офис, чем на уютное жилье, где постоянно живут родные люди. Часто Вячеслав Михайлович чувствует себя очень одиноким, несмотря на то, что сегодня он "весь в друзьях и делах". Он рассказывает, как встретил последний Новый год: в своем доме он остался совершенно один, потом позвал своих охранников, разлил по бокалам свежевыжатый сок, поздравил их с наступающим и… в 9 часов лег спать. Слава Зайцев часто приезжает на свою родину, в Иваново, сюда его всегда тянет. Здесь все напоминает о счастливом, хоть и голодном, детстве. В Иванове, в музее ситца, возле фотографий матери и отца он рассказывает о далеких и прекрасных годах. Подводит нас к кукле – своему двойнику. У куклы очень грустное лицо. Вячеслав Михайлович говорит, что художник угадал, увидел его, Зайцева, суть. Прославленного модельера тревожит разлад с сыном. Вечный конфликт отцов и детей добавил в судьбу Вячеслава Зайцева одиночества. Восходящая звезда отечественной моды редко видел сына, бывшая жена не хотела. И это стало для отца очередной болью, от которой он спасался творчеством. В это время Егор жил своей жизнью. У нас сохранилась уникальная съемка 15-летней давности, где Егор возле своего мотоцикла рассказывает о портрете Маруси - своей дочери и внучки Славы. Он нарисовал ее на бензобаке своего мотоцикла. Вячеслав Михайлович говорит о сыне только в превосходной степени, пытается наладить отношения с ним. Это не всегда удается. Егор годами не бывает в его загородном доме. Но знаменитый российский кутюрье уверенно заявляет: его прямые наследники и самые близкие люди – сын Егор и внучка Маруся!
В фильме участвуют: Алла Пугачева, Иосиф Кобзон, Галина Волчек, Владимир Зельдин, Валентин Юдашкин, Тамара Гвердцители, Александр Ширвиндт, Андрей Макаревич, Александр Васильев, Эвелина Хромченко, Лёка Миронова, Татьяна Михалкова, Маруся Зайцева, внучка Вячеслава Зайцева.
Тип релиза: HDTV 1080i
Контейнер: TS
Семпл: http://multi-up.com/838068
Доп. информация: Релиз -

Рип чистый. Без посторонних надписей. Выкладывается как есть.
Качество: HDTV 1080i
Контейнер: TS
Видео кодек: AVC
Аудио кодек: AC3
Видео: 1920x1080 (16:9) 25.000 fps 7 872 Kbps, 0.151 bit/pixel
Аудио 1: MPEG Audio 48000Hz stereo 192 Кбит/сек
Аудио 2: AC3 384 Kbps, 2 channels

Код: Выделить всё
General
ID                                       : 1 (0x1)
Complete name                            : N:\ВЫКЛАДКА\HDTV\Документальные фильмы\Вячеслав Зайцев. Всегда в моде ( (2013, Документальный, HDTV) (MYDIMKA).ts
Format                                   : MPEG-TS
File size                                : 2.79 GiB
Duration                                 : 44mn 55s
Overall bit rate mode                    : Variable
Overall bit rate                         : 8 889 Kbps
Video
ID                                       : 2931 (0xB73)
Menu ID                                  : 1 (0x1)
Format                                   : AVC
Format/Info                              : Advanced Video Codec
Format profile                           : High@L4.0
Format settings, CABAC                   : Yes
Format settings, ReFrames                : 4 frames
Codec ID                                 : 27
Duration                                 : 44mn 55s
Bit rate                                 : 7 868 Kbps
Width                                    : 1 920 pixels
Height                                   : 1 080 pixels
Display aspect ratio                     : 16:9
Frame rate                               : 25.000 fps
Color space                              : YUV
Chroma subsampling                       : 4:2:0
Bit depth                                : 8 bits
Scan type                                : MBAFF
Bits/(Pixel*Frame)                       : 0.152
Stream size                              : 2.47 GiB (89%)
Audio #1
ID                                       : 2932 (0xB74)
Menu ID                                  : 1 (0x1)
Format                                   : MPEG Audio
Format version                           : Version 1
Format profile                           : Layer 2
Codec ID                                 : 3
Duration                                 : 44mn 55s
Bit rate mode                            : Constant
Bit rate                                 : 192 Kbps
Channel(s)                               : 2 channels
Sampling rate                            : 48.0 KHz
Compression mode                         : Lossy
Stream size                              : 61.7 MiB (2%)
Language                                 : Russian
Audio #2
ID                                       : 2933 (0xB75)
Menu ID                                  : 1 (0x1)
Format                                   : AC-3
Format/Info                              : Audio Coding 3
Mode extension                           : CM (complete main)
Format settings, Endianness              : Big
Codec ID                                 : 129
Duration                                 : 44mn 55s
Bit rate mode                            : Constant
Bit rate                                 : 384 Kbps
Channel(s)                               : 2 channels
Channel positions                        : Front: L R
Sampling rate                            : 48.0 KHz
Bit depth                                : 16 bits
Compression mode                         : Lossy
Stream size                              : 123 MiB (4%)
Language                                 : Russian
Text
ID                                       : 2934 (0xB76)-888
Menu ID                                  : 1 (0x1)
Format                                   : Teletext Subtitle
Language                                 : Russian
Menu
ID                                       : 2930 (0xB72)
Menu ID                                  : 1 (0x1)
Duration                                 : 44mn 55s
List                                     : 2931 (0xB73) (AVC) / 2932 (0xB74) (MPEG Audio, Russian) / 2933 (0xB75) (AC-3, Russian) / 2934 (0xB76) ()
Language                                 :  / Russian / Russian
Не забывайте говорить Спасибо. Не уходите с раздачи!   
Торрент: Зарегистрирован [13 янв 2018, 17:30] Для скачивания .torrent
необходима регистрация
Или скачать с помощью
MediaGet
Статус:
Проверен
 
.torrent скачан: 0 раз
Размер: 2.79 ГБ (2 995 446 864 байт)
   Стать Автором раздачи
   
Цитата

Вернуться в Личности

Кто сейчас на конференции

Сейчас эту тему просматривают: нет зарегистрированных пользователей и гости: 1