Галина Старовойтова. Последние 24 часа (Людмила Снигирева) [2014, Документалистика, HDTV 1080i]

 Статистика раздачи 
Размер: 3.74 ГБ   |  Зарегистрирован: 13 янв 2018, 17:29   |   .torrent скачан: 0 раз
Сидеров: 1  [ 0 байт/сек ]     Личеров: 2  [ 0 байт/сек ]  
  
Аватара пользователя
 
Раздал: 0 байт
Скачал: 0 байт
Ратио: Inf.
Сообщения: 109709
Стаж: 7 лет 5 месяцев 10 дней

Галина Старовойтова. Последние 24 часа
Год выпуска: 2014
Страна: Россия
Студия: Медиа Конструктор
Жанр: Документалистика
Продолжительность: 00:50:00
Перевод: Не требуется
Русские субтитры: есть
Режиссер: Людмила Снигирева
Описание: Убийца сознался. Но почему он сознался именно сейчас? Как следствию удалось выйти на него? И что заставило его сделать сенсационное признание?
За что на самом деле убили Галину Старовойтову? Согласно официальной версии, причиной убийства стала политическая деятельность Старовойтовой, однако почему ее "заказали" - до сих пор неизвестно.
В фильме принимают участие:
Андрей Кароль, глава оперативной группы в 1998 году,
Максим Есаулов, зам начальника отдела заказных убийств в 1998 году,
Петр Кучеренко, помощник Галины Старовойтовой,
Адвокат Барсукова,
Андрей Волков, муж Галины Старовойтовой,
Андрей Горшков, журналист,
Ирина Хакамада,
Евгений Вышенков, журналист,
Сергей Степашин,
Андрей Константинов, писатель,
Сергей Станкевич, политик,
Лев Пономарев, политический и общественный деятель.
Доп. информация:
Галина Старовойтова была застрелена вечером 20 ноября 1998 года в подъезде своего дома на набережной канала Грибоедова. Вместе с ней был ее помощник Руслан Линьков. Он получил ранение в голову, однако выжил.
Попытаемся выяснить, какие версии убийства имеют право на существование. Восстановим события на канале Грибоедова в тот роковой вечер. Какие странности были в этом убийстве? Почему в качестве версии убийства рассматривалась избирательная кампания в Заксобрание Санкт-Петербурга?
Еще одна версия - разбойное нападение. Слух о том, что в руках Старовойтовой был чемоданчик с деньгами, появился сразу же после убийства. Экономическую составляющую преступления начали отрабатывать практически сразу. Было предположение, что именно наличные деньги могли послужить поводом для нападения на депутата.
Следствие провело невероятную по объему работу. Финальным аккордом стали показания Анатолия Воронина, обеспечивавшего, по мнения следствия, техническую часть операции. Находясь в камере СИЗО за уголовное преступление, он признался информатору, что причастен к организации убийства Старовойтовой. Так следствие вышло на сотрудников ЧОПа "Александр Невский Благоверный". Осенью 2002 года по подозрению в убийстве Галины Старовойтовой были арестованы шесть человек.
В качестве мотивов заказного убийства следствие рассматривает борьбу с рейдерами или конфликт с ОПГ. В 90-х в бандитской среде сложилась практика так называемого "убийства в подарок". Когда неугодных криминальным (или политическим) авторитетам персонажей устраняли, а затем преподносили свершившееся как неожиданный подарок криминальному боссу. На самом деле, людей, желавших смерти Галине Старовойтовой, было более чем достаточно.
Однако к тому времени в деле Старовойтовой появился новый фигурант,. Организатор убийства Старовойтовой Юрий Колчин впервые назвал фамилию Глущенко. Депутат от фракции ЛДПР, один из лидеров тамбовских.
Борьба с коррупцией и криминалитетом во власти была важнейшей частью предвыборной программы Старовойтовой. Она активно собирала доказательства причастности власть имущих к преступлениям, писала депутатские запросы в прокуратуру и КРУ, которые часто заканчивались проверками и реальными уголовными делами. Она собирала доказательства преступной деятельности Глущенко, чтобы лишить его депутатской неприкосновенности и передать в руки правосудия.
24 апреля этого года Михаил Глущенко признал свою вину в организации убийства политика Галины Старовойтовой в 1998 году и назвал следствию имя главного заказчика преступления. Владимир Барсуков (урожденный Кумарин, взял фамилию матери после второй судимости) - известный криминальный авторитет, создатель в начале 90-х годов в Петербурге преступной группировки, которую называли "тамбовской", так как Барсуков принимал в нее поначалу только своих земляков из Тамбовской области.
Почему же Глущенко так долго молчал о своей причастности к убийству Старовойтовой и почему он только сейчас взял на себя всю вину? Не исключено, что прагматик Глущенко действует очень расчетливо. Учитывая, что уже истекли сроки привлечения Глущенко к уголовной ответственности за убийство Старовойтовой, он может вообще избежать реального наказания. А сотрудничество со следствием повлияет на сокращение срока его текущего наказания за вымогательство.
Сэмпл: http://multi-up.com/981608
Тип релиза: HDTV 1080i
Контейнер: TS
Видео: AVC, 1920х1080, 16:9, 9513 Кбит/сек, 25 fps
Аудио: AC 5.1, 384 Кбит/сек, 48 КГц, 6 каналов
Код: Выделить всё
Общее
Идентификатор                            : 16 (0x10)
Полное имя                               : Galina Starovojtova.ts
Формат                                   : MPEG-TS
Размер файла                             : 3,74 Гбайт
Продолжительность                        : 50 м.
Режим общего битрейта                    : Переменный
Общий поток                              : 10,7 Мбит/сек
Видео
Идентификатор                            : 1902 (0x76E)
Идентификатор меню                       : 92 (0x5C)
Формат                                   : AVC
Формат/Информация                        : Advanced Video Codec
Профиль формата                          : [email protected]
Параметр CABAC формата                   : Да
Параметр ReFrames формата                : 3 кадра
Идентификатор кодека                     : 27
Продолжительность                        : 50 м.
Битрейт                                  : 9513 Кбит/сек
Ширина                                   : 1920 пикселей
Высота                                   : 1080 пикселей
Соотношение сторон                       : 16:9
Частота кадров                           : 25,000 кадров/сек
Стандарт вещания                         : PAL
Цветовое пространство                    : YUV
Субдискретизация насыщенности            : 4:2:0
Битовая глубина                          : 8 бит
Тип развёртки                            : Чересстрочная
Порядок развёртки                        : Верхнее поле первое
Бит/(Пиксели*Кадры)                      : 0.184
Размер потока                            : 3,34 Гбайт (89%)
Основные цвета                           : BT.709
Характеристики трансфера                 : BT.709
Коэффициенты матрицы                     : BT.709
Аудио
Идентификатор                            : 3902 (0xF3E)
Идентификатор меню                       : 92 (0x5C)
Формат                                   : AC-3
Формат/Информация                        : Audio Coding 3
Расширение режима                        : CM (complete main)
Параметр Endianness формата              : Big
Идентификатор кодека                     : 6
Продолжительность                        : 50 м.
Вид битрейта                             : Постоянный
Битрейт                                  : 384 Кбит/сек
Каналы                                   : 6 каналов
Расположение каналов                     : Front: L C R, Side: L R, LFE
Частота                                  : 48,0 КГц
Битовая глубина                          : 16 бит
Метод сжатия                             : С потерями
Задержка видео                           : 45 мс.
Размер потока                            : 138 Мбайт (4%)
Язык                                     : std
Язык, дополнительно                      : Clean effects
Текст
Идентификатор                            : 33 (0x21)-100
Идентификатор меню                       : 92 (0x5C)
Формат                                   : Teletext
Меню
Идентификатор                            : 902 (0x386)
Идентификатор меню                       : 92 (0x5C)
Продолжительность                        : 50 м.
Список                                   : 1902 (0x76E) (AVC) / 2902 (0xB56) (MPEG Audio, std) / 3902 (0xF3E) (AC-3, std) / 33 (0x21) ()
Язык                                     :  / std / std
   
Торрент: Зарегистрирован [13 янв 2018, 17:29] Скачать торрент Магнет ссылка
Скачать торрент
[ Размер 19.15 КБ / Просмотров 1 ]
Статус:
Проверен
 
.torrent скачан: 0 раз
Размер: 3.74 ГБ (4 016 153 760 байт)
   Стать Автором раздачи
 
 
Цитата
  • Похожие торренты
    Ответы
    Просмотры
    Последнее сообщение

Вернуться в Личности

Кто сейчас на конференции

Сейчас эту тему просматривают: нет зарегистрированных пользователей и гости: 1