Владимир Зельдин: Кумир Века (Глеб Добровольский) [2015, Документальный, HDTVRip 720p]

 Статистика раздачи 
Размер: 1.3 ГБ   |  Зарегистрирован: 13 янв 2018, 17:29   |   .torrent скачан: 0 раз
Сидеров: 1  [ 0 байт/сек ]     Личеров: 0  [ 0 байт/сек ]  
  
Аватара пользователя
 
Раздал: 0 байт
Скачал: 0 байт
Ратио: Inf.
Сообщения: 103047
Стаж: 7 лет 3 месяца 16 дней

Владимир Зельдин: Кумир Века

#77Год выпуска: 2015
Страна: Россия
Канал: Россия HD
Жанр: Документальный
Продолжительность: 0:44:23
Режиссер: Глеб Добровольский
Описание: Владимира Зельдина можно назвать нашим национальным достоянием. Он внесен в Книгу рекордов Гиннесса как самый возрастной актер, постоянно играющий в театральной труппе. Мало того, Владимир Зельдин с легкостью преодолел свою дистанцию на Эстафете Олимпийского огня с двухкилограммовым факелом в руке. Но разве дело в возрасте? Для миллионов зрителей Владимир Зельдин не просто актер.
Автор рипа: lrn
Автор записи: riper.am
Сэмпл: sendfile
Тип релиза: HDTVRip 720p
Контейнер: MKV
Видео: 1280x720 (16:9), 25,000 fps, H264, ~4000 kbps avg, ~0.174 bit/pixel
Аудио: 48 kHz, AC3 Dolby Digital, 2/0 (L,R) ch, ~192.00 kbps avg
General
Unique ID : 200343666391206516024303846469449383691 (0x96B8C9606505A11C9DFFD4FBDFA97F0B)
Complete name : E:\uTorrent.Temp\Temp\Vladimir.Zeldin.Kumir.Veka.2015.HDTV.720p.x264-lrn.mkv
Format : Matroska
Format version : Version 4 / Version 2
File size : 1.30 GiB
Duration : 44mn 23s
Overall bit rate : 4 194 Kbps
Movie name : 'Vladimir.Zeldin.Kumir.Veka.2015.HDTV.720p.x264' by lrn © 2015
Encoded date : UTC 2010-02-22 21:41:31
Writing application : mkvmerge v5.9.0 ('On The Loose') built on Dec 9 2012 15:37:01
Writing library : libebml v1.3.0 + libmatroska v1.4.0
DURATION : 00:44:23.280000000
NUMBER_OF_FRAMES : 66582
NUMBER_OF_BYTES : 1331757856
_STATISTICS_WRITING_APP : mkvmerge v7.0.0 ('Where We Going') 32bit built on Jun 9 2014 15:08:34
_STATISTICS_WRITING_DATE_UT : 2015-02-11 08:57:10
_STATISTICS_TAGS : BPS DURATION NUMBER_OF_FRAMES NUMBER_OF_BYTES
Video
ID : 1
Format : AVC
Format/Info : Advanced Video Codec
Format profile : [email protected]
Format settings, CABAC : Yes
Format settings, ReFrames : 6 frames
Codec ID : V_MPEG4/ISO/AVC
Duration : 44mn 23s
Bit rate : 4 000 Kbps
Width : 1 280 pixels
Height : 720 pixels
Display aspect ratio : 16:9
Frame rate mode : Constant
Frame rate : 25.000 fps
Color space : YUV
Chroma subsampling : 4:2:0
Bit depth : 8 bits
Scan type : Progressive
Bits/(Pixel*Frame) : 0.174
Stream size : 1.21 GiB (93%)
Writing library : x264 core 142 r2431 ac76440
Encoding settings : cabac=1 / ref=6 / deblock=1:0:0 / analyse=0x3:0x133 / me=umh / subme=9 / psy=1 / psy_rd=1.00:0.00 / mixed_ref=1 / me_range=24 / chroma_me=1 / trellis=2 / 8x8dct=1 / cqm=0 / deadzone=21,11 / fast_pskip=1 / chroma_qp_offset=-2 / threads=12 / lookahead_threads=1 / sliced_threads=0 / nr=0 / decimate=1 / interlaced=0 / bluray_compat=0 / constrained_intra=0 / bframes=6 / b_pyramid=2 / b_adapt=2 / b_bias=0 / direct=3 / weightb=1 / open_gop=0 / weightp=2 / keyint=250 / keyint_min=25 / scenecut=40 / intra_refresh=0 / rc_lookahead=50 / rc=2pass / mbtree=1 / bitrate=4000 / ratetol=1.0 / qcomp=0.60 / qpmin=0 / qpmax=69 / qpstep=4 / cplxblur=20.0 / qblur=0.5 / ip_ratio=1.40 / aq=1:1.00
Default : Yes
Forced : No
Audio
ID : 2
Format : AC-3
Format/Info : Audio Coding 3
Mode extension : CM (complete main)
Format settings, Endianness : Big
Codec ID : A_AC3
Duration : 44mn 23s
Bit rate mode : Constant
Bit rate : 192 Kbps
Channel(s) : 2 channels
Channel positions : Front: L R
Sampling rate : 48.0 KHz
Bit depth : 16 bits
Compression mode : Lossy
Stream size : 61.0 MiB (5%)
Language : Russian
Default : Yes
Forced : No


   
Торрент: Зарегистрирован [13 янв 2018, 17:29] Скачать торрент Магнет ссылка
Скачать торрент
[ Размер 13.48 КБ / Просмотров 2 ]
Статус:
Проверен
 
.torrent скачан: 0 раз
Размер: 1.3 ГБ (1 396 285 688 байт)
   Стать Автором раздачи
 
 
Цитата
  • Похожие торренты
    Ответы
    Просмотры
    Последнее сообщение

Вернуться в Личности

Кто сейчас на конференции

Сейчас эту тему просматривают: нет зарегистрированных пользователей и гости: 1