Четыре династии Сергея Михалкова (Константин Мурашев) [2013, Документальный, HDTV 1080i]

 Статистика раздачи 
Размер: 3.2 ГБ   |  Зарегистрирован: 13 янв 2018, 17:28   |   .torrent скачан: 0 раз
Сидеров: 0  [ 0 байт/сек ]     Личеров: 0  [ 0 байт/сек ]  
  
Аватара пользователя
 
Раздал: 0 байт
Скачал: 0 байт
Ратио: Inf.
Сообщения: 114824
Стаж: 7 лет 9 месяцев 27 дней

Четыре династии Сергея Михалкова
Год выпуска: 2013
Страна: Россия
Жанр: Документальный
Продолжительность: 00:51:52
Перевод: Не требуется
Русские субтитры: нет
Режиссер: Константин Мурашев
Описание: Главный детский писатель страны, автор гимна Советского Союза, важный государственный вельможа, любимец Сталина – такого Михалкова знали все. Но был другой Сергей Михалков, которого знали только самые близкие. У него было немало тайн. Михалков из древнего дворянского рода. В его прошлом - отобранные революцией поместья, жена-дворянка, подпольные крестины детей. В его доме - старинные портреты предков, семейные фотографии, за которые когда-то грозил расстрел, и иконы расставлены так, чтобы в любой момент их можно было спрятать. Многочисленные родственники помогут нам узнать неизвестные подробности жизни Сергея Владимировича, развенчать стереотипы, связанные с ним. Вместе с невесткой поэта - Татьяной Михалковой - мы пройдемся по комнатам дачи на Николиной горе. Увидим шкуры убитых Сергеем Владимировичем зверей, именно он приучил Никиту Михалкова к охоте. Найдем стих, написанный поэтом прямо на стене. Заглянем в секретный шкаф, в котором Михалков во время советской власти прятал иконы, ведь он всегда был верующим человеком. Также Татьяна Михалкова покажет портрет предка Михалкова, из рода Глебовых, который он прятал весь советский период жизни. Он скрывал свое дворянское происхождение. Даже в анкете писал: служащий. Но дома он не скрывал свои корни и воспитал детей в уважении к своим именитым предкам. В нашем фильме родственники Михалкова поделятся своими воспоминаниями о Сергее Владимировиче и раскроют некоторые его секреты. Андрей Михалков-Кончаловский расскажет, как папа тяжело переживал его отъезд за границу. А еще о том, как он избегал дружбы с сильными мира сего и что придумывал, чтобы отклонить, например, приглашение Василия Сталина на свои вечеринки. Внук Егор вспомнит, как дед обсуждал с ним девушек. Внук Степан расскажет о том, что Сергей Владимирович был непритязателен: в командировках не мог жить в отдельном номере и всегда просил подселить его к кому-нибудь. Внучка Анна расскажет о том, как в их семье приняли новую жену дедушки - Юлию Субботину, которая младше его на 48 лет!
Продюсеры: Андрей Сычев, Андрей Цвинтарный, Олег Вольнов
Автор: Ирина Капралова
Тип релиза: HDTV 1080i
Контейнер: TS
Доп. информация: Релиз -

Рип чистый. Без посторонних надписей. Выкладывается как есть.
Качество: HDTV 1080i
Контейнер: TS
Видео кодек: AVC
Аудио кодек: AC3
Видео: 1920x1080 (16:9) 25.000 fps 7 872 Kbps, 0.151 bit/pixel
Аудио 1: MPEG Audio 48000Hz stereo 192 Кбит/сек
Аудио 2: AC3 384 Kbps, 2 channels

Код: Выделить всё
General
ID                                       : 1 (0x1)
Complete name                            : N:\ВЫКЛАДКА\HDTV\Документальные фильмы\Четыре династии Сергея Михалкова (2013, Документальный, HDTV) (MYDIMKA).ts
Format                                   : MPEG-TS
File size                                : 3.20 GiB
Duration                                 : 51mn 51s
Overall bit rate mode                    : Variable
Overall bit rate                         : 8 846 Kbps
Video
ID                                       : 2931 (0xB73)
Menu ID                                  : 1 (0x1)
Format                                   : AVC
Format/Info                              : Advanced Video Codec
Format profile                           : High@L4.0
Format settings, CABAC                   : Yes
Format settings, ReFrames                : 3 frames
Codec ID                                 : 27
Duration                                 : 51mn 51s
Bit rate                                 : 7 827 Kbps
Width                                    : 1 920 pixels
Height                                   : 1 080 pixels
Display aspect ratio                     : 16:9
Frame rate                               : 25.000 fps
Color space                              : YUV
Chroma subsampling                       : 4:2:0
Bit depth                                : 8 bits
Scan type                                : MBAFF
Bits/(Pixel*Frame)                       : 0.151
Stream size                              : 2.84 GiB (88%)
Audio #1
ID                                       : 2932 (0xB74)
Menu ID                                  : 1 (0x1)
Format                                   : MPEG Audio
Format version                           : Version 1
Format profile                           : Layer 2
Codec ID                                 : 3
Duration                                 : 51mn 51s
Bit rate mode                            : Constant
Bit rate                                 : 192 Kbps
Channel(s)                               : 2 channels
Sampling rate                            : 48.0 KHz
Compression mode                         : Lossy
Stream size                              : 71.2 MiB (2%)
Language                                 : Russian
Audio #2
ID                                       : 2933 (0xB75)
Menu ID                                  : 1 (0x1)
Format                                   : AC-3
Format/Info                              : Audio Coding 3
Mode extension                           : CM (complete main)
Format settings, Endianness              : Big
Codec ID                                 : 129
Duration                                 : 51mn 51s
Bit rate mode                            : Constant
Bit rate                                 : 384 Kbps
Channel(s)                               : 2 channels
Channel positions                        : Front: L R
Sampling rate                            : 48.0 KHz
Bit depth                                : 16 bits
Compression mode                         : Lossy
Stream size                              : 142 MiB (4%)
Language                                 : Russian
Не забывайте говорить Спасибо. Не уходите с раздачи!   
Торрент: Зарегистрирован [13 янв 2018, 17:28] Для скачивания .torrent
необходима регистрация
Или скачать с помощью
MediaGet
Статус:
Проверен
 
.torrent скачан: 0 раз
Хэш: 92a502c746ef5bdb65a2ccaa5e4c6872661cdb22
Размер: 3.2 ГБ (3 441 057 248 байт)
   Стать Автором раздачи
   
Цитата

Вернуться в Личности

Кто сейчас на конференции

Сейчас эту тему просматривают: нет зарегистрированных пользователей и гости: 1