Сергей Светлаков. Тот еще пельмень (Максим Василенко) [2013, Документальный, HDTV 1080i]

 Статистика раздачи 
Размер: 3.18 ГБ   |  Зарегистрирован: 13 янв 2018, 17:28   |   .torrent скачан: 0 раз
Сидеров: 0  [ 0 байт/сек ]     Личеров: 0  [ 0 байт/сек ]  
  
Аватара пользователя
 
Раздал: 0 байт
Скачал: 0 байт
Ратио: Inf.
Сообщения: 114824
Стаж: 7 лет 9 месяцев 27 дней

Сергей Светлаков. Тот еще пельмень
Год выпуска: 2013
Страна: Россия
Жанр: Документальный
Продолжительность: 00:52:04
Режиссер: Максим Василенко
Описание: Сергей Светлаков. В свои 35 он уже – участник одной из лучших команд КВН "Уральские пельмени" и один из самых популярных телеведущих и шоуменов страны. Казалось бы, о чем можно еще мечтать в его возрасте? Но коренной екатеринбуржец из семьи железнодорожников не может ограничиться тем, что имеет. Он пробует себя в новых амплуа - актера и режиссера. Ни одного свободного дня, график расписан далеко вперед, 22 перелета в месяц. А перед съемками гримеры ломают голову, как убрать красноту с глаз Светлакова. Из-за нереальной загруженности выделить время для наших съемок Сергею было очень тяжело. Творческая группа делала буквально чудеса: подстраиваясь под его расписание, вылетали вслед за ним буквально через два часа после его звонка: "Все в Екатеринбург!" или "Завтра у меня съемки в Таиланде! Прилетайте!". В таком темпе мы проследовали за ним из Москвы в Киев на открытие конкурса "Мисс Украина", вернулись в Москву и побывали на записи рекламного ролика и на премьере фильма "Камень". В этом фильме Светлаков выступил в неожиданной роли - похитителя ребенка и убийцы: "Во мне много было светлого, но какую-то частицу темного я из своей души в этом фильме выпустил". Нам удалось стать свидетелями съемок фильма "Джунгли" в Таиланде, в котором играют Сергей Светлаков и Вера Брежнева. Оказавшись в Екатеринбурге, мы познакомились с родителями Сергея - Галиной Григорьевной и Юрием Венедиктовичем. Мама поведала нам трогательную историю, как Сергей, не предупредив ни о чем, однажды привел их в новую просторную квартиру и торжественно вручил им ключи от нее. Сам же Светлаков до сих пор снимает квартиру в Москве. Конкурс "Мисс Украина" Светлаков вел не один. Неразлучная четверка – Ургант, Мартиросян, Цекало и Светлаков – была на сцене вместе. Также нам удалось запечатлеть уникальные кадры закулисья программы "Прожекторперисхилтон". Появятся ли когда-нибудь еще раз вместе в эфире? Мы увидим, как ведущие "Прожектора" собираются в обычном кабинете и обсуждают темы предстоящей записи. От смеха нашему оператору с трудом удавалось держать камеру. В нашем фильме Сергей Светлаков, его коллеги и близкие расскажут о тех сторонах жизни телеведущего, о которых большинство зрителей даже не догадываются. Например, мы увидим, как он общается с дочерью. А еще Сергей ведет дневник на Ipad, записывая туда все, что действительно его тронуло и заинтересовало. Где бы Светлаков не оказался – дневник всегда с ним. И теперь мы можем заглянуть в эти записи.
Тип релиза: HDTV 1080i
Контейнер: TS
Доп. информация: Релиз -

Рип чистый. Без посторонних надписей. Выкладывается как есть.
Качество: HDTV 1080i
Контейнер: TS
Видео кодек: AVC
Аудио кодек: AC3
Видео: 1920x1080 (16:9) 25.000 fps 7 838 Kbps, 0.151 bit/pixel
Аудио 1: MPEG Audio 48000Hz stereo 192 Кбит/сек
Аудио 2: AC3 256 Kbps, 2 channels
Код: Выделить всё
General
ID                                       : 1 (0x1)
Complete name                            : G:\ВЫКЛАДКА\HDTV\Документальные фильмы\Сергей Светлаков. Тот еще пельмень ( (2013, Документальный, HDTV) (MYDIMKA).ts
Format                                   : MPEG-TS
File size                                : 3.18 GiB
Duration                                 : 52mn 4s
Overall bit rate mode                    : Variable
Overall bit rate                         : 8 754 Kbps
Video
ID                                       : 2931 (0xB73)
Menu ID                                  : 1 (0x1)
Format                                   : AVC
Format/Info                              : Advanced Video Codec
Format profile                           : High@L4.0
Format settings, CABAC                   : Yes
Format settings, ReFrames                : 4 frames
Codec ID                                 : 27
Duration                                 : 52mn 4s
Bit rate                                 : 7 869 Kbps
Width                                    : 1 920 pixels
Height                                   : 1 080 pixels
Display aspect ratio                     : 16:9
Frame rate                               : 25.000 fps
Color space                              : YUV
Chroma subsampling                       : 4:2:0
Bit depth                                : 8 bits
Scan type                                : MBAFF
Bits/(Pixel*Frame)                       : 0.152
Stream size                              : 2.86 GiB (90%)
Audio #1
ID                                       : 2932 (0xB74)
Menu ID                                  : 1 (0x1)
Format                                   : MPEG Audio
Format version                           : Version 1
Format profile                           : Layer 2
Codec ID                                 : 3
Duration                                 : 52mn 4s
Bit rate mode                            : Constant
Bit rate                                 : 192 Kbps
Channel(s)                               : 2 channels
Sampling rate                            : 48.0 KHz
Compression mode                         : Lossy
Stream size                              : 71.5 MiB (2%)
Language                                 : Russian
Audio #2
ID                                       : 2933 (0xB75)
Menu ID                                  : 1 (0x1)
Format                                   : E-AC-3
Format/Info                              : Audio Coding 3
Format settings, Endianness              : Big
Codec ID                                 : 6
Duration                                 : 52mn 4s
Bit rate mode                            : Constant
Bit rate                                 : 256 Kbps
Channel(s)                               : 2 channels
Channel positions                        : Front: L R
Sampling rate                            : 48.0 KHz
Compression mode                         : Lossy
Stream size                              : 95.3 MiB (3%)
Language                                 : English
Text
ID                                       : 2934 (0xB76)-878
Menu ID                                  : 1 (0x1)
Format                                   : Teletext Subtitle
Language                                 : Russian
Menu
ID                                       : 2930 (0xB72)
Menu ID                                  : 1 (0x1)
Duration                                 : 52mn 4s
List                                     : 2931 (0xB73) (AVC) / 2932 (0xB74) (MPEG Audio, Russian) / 2933 (0xB75) (E-AC-3, English) / 2934 (0xB76) ()
Language                                 :  / Russian / English
Не забывайте говорить Спасибо. Не уходите с раздачи!   
Торрент: Зарегистрирован [13 янв 2018, 17:28] Для скачивания .torrent
необходима регистрация
Или скачать с помощью
MediaGet
Статус:
Проверен
 
.torrent скачан: 0 раз
Хэш: cd538b8500e35f3f589f630c0411091266864c17
Размер: 3.18 ГБ (3 419 070 084 байт)
   Стать Автором раздачи
   
Цитата

Вернуться в Личности

Кто сейчас на конференции

Сейчас эту тему просматривают: нет зарегистрированных пользователей и гости: 1