Виктор Авилов. С Воландом я в расчете (Ирина Голубева) [2013, Документальный, HDTV 1080i]

 Статистика раздачи 
Размер: 3.26 ГБ   |  Зарегистрирован: 13 янв 2018, 17:28   |   .torrent скачан: 0 раз
Сидеров: 0  [ 0 байт/сек ]     Личеров: 0  [ 0 байт/сек ]  
  
Аватара пользователя
 
Раздал: 0 байт
Скачал: 0 байт
Ратио: Inf.
Сообщения: 112712
Стаж: 7 лет 8 месяцев 6 дней

Виктор Авилов. С Воландом я в расчете
Год выпуска: 2013
Страна: Россия
Жанр: документальный
Продолжительность: 00:51:34
Перевод: не требуется
Русские субтитры: нет
Режиссер: Ирина Голубева
Описание: Виктор Авилов. Актер. Экстрасенс. Мистификатор. Он провоцировал свою судьбу. Заигрывал со смертью. Стоял над пропастью.
Про Виктора Авилова говорили "дьявольски талантлив" и "актер от Бога". Все сыгранные им роли, все образы на изломе, на слиянии Добра и Зла.
В нашем фильме мы раскроем и тайны личной жизни Авилова. О том, как актер переживал многочисленные разводы, расскажут его коллеги по театру. Почему такой романтичный и любящий человек не смог обрести счастье и покой в семейной жизни?
Вокруг актера – множество легенд. И одна из самых загадочных – существование прижизненной маски Виктора Авилова в роли Гамлета. Почему актер постоянно испытывал себя, ходил по лезвию бритвы – словно проверяя свое бессмертие? Может быть, это роковое влияние прижизненной маски?
Качество: HDTV 1080i
Формат: TS
Видео: AVC (H264), 1920x1080 (16:9), 25 fps, 8412 Kbps
Аудио: MP2, 48 KHz, 2 ch, 192 Kbps
Код: Выделить всё
General
ID                          : 1 (0x1)
Complete name               : I:\Виктор Авилов. С Воландом я в расчете (2013) [HDTV 1080i].ts
Format                      : MPEG-TS
File size                   : 3.26 GiB
Duration                    : 51mn 34s
Overall bit rate mode       : Variable
Overall bit rate            : 9 054 Kbps
Video
ID                          : 513 (0x201)
Menu ID                     : 1 (0x1)
Format                      : AVC
Format/Info                 : Advanced Video Codec
Format profile              : High@L4
Format settings, CABAC      : Yes
Format settings, ReFrames   : 3 frames
Codec ID                    : 27
Duration                    : 51mn 34s
Bit rate                    : 8 412 Kbps
Width                       : 1 920 pixels
Height                      : 1 080 pixels
Display aspect ratio        : 16:9
Frame rate                  : 25.000 fps
Standard                    : Component
Color space                 : YUV
Chroma subsampling          : 4:2:0
Bit depth                   : 8 bits
Scan type                   : Interlaced
Scan order                  : Top Field First
Bits/(Pixel*Frame)          : 0.162
Stream size                 : 3.03 GiB (93%)
Color range                 : Limited
Color primaries             : BT.709
Transfer characteristics    : BT.709
Matrix coefficients         : BT.709
Audio
ID                          : 514 (0x202)
Menu ID                     : 1 (0x1)
Format                      : MPEG Audio
Format version              : Version 1
Format profile              : Layer 2
Codec ID                    : 3
Duration                    : 51mn 34s
Bit rate mode               : Constant
Bit rate                    : 192 Kbps
Channel(s)                  : 2 channels
Sampling rate               : 48.0 KHz
Compression mode            : Lossy
Stream size                 : 70.8 MiB (2%)
Language                    : Russian
Не забывайте говорить Спасибо. Не уходите с раздачи!   
Торрент: Зарегистрирован [13 янв 2018, 17:28] Для скачивания .torrent
необходима регистрация
Или скачать с помощью
MediaGet
Статус:
Проверен
 
.torrent скачан: 0 раз
Размер: 3.26 ГБ (3 501 822 232 байт)
   Стать Автором раздачи
   
Цитата
  • Похожие торренты
    Ответы
    Просмотры
    Последнее сообщение

Вернуться в Личности

Кто сейчас на конференции

Сейчас эту тему просматривают: нет зарегистрированных пользователей и гости: 1