Калашников (Алексей Артемьев) [2013, Документальный, DVB HD 1080i]

 Статистика раздачи 
Размер: 3.02 ГБ   |  Зарегистрирован: 13 янв 2018, 17:27   |   .torrent скачан: 1 раз
Сидеров: 3  [ 0 байт/сек ]     Личеров: 1  [ 0 байт/сек ]  
  
Аватара пользователя
 
Раздал: 0 байт
Скачал: 0 байт
Ратио: Inf.
Сообщения: 103047
Стаж: 7 лет 3 месяца 16 дней

Калашников
Год выпуска: 2013
Страна: Россия
Студия: Концерн "Калашников"
Жанр: Документальный
Продолжительность: 00:44:48
Перевод: Не требуется
Русские субтитры: нет
Режиссер: Алексей Артемьев
Описание:
В Ижевске в возрасте 94 лет скончался легендарный конструктор Михаил Калашников.
Журналисты разошлись в своих оценках: одни считают, что инженер стал создателем автомата, унесшего больше жизней, чем какое-либо другое оружие (хотя жертвами кухонных ножей стали куда больше людей). Другие называют конструктора архитектором нынешнего облика мира.
Как бы то ни было, и критики, и поклонники М.Калашникова сходятся в одном: его изобретение изменило историю человечества. По оценкам международной исследовательской организации Small Arms Survey, "культ "Калашникова" и "калашниковизация" стали распространенными терминами, описывающими оружейные традиции многих стран Кавказа, Ближнего Востока, Центральной Азии, Африки. АК-47 украшает гербы Мозамбика, Зимбабве, Буркина-Фасо (с 1984 по 1997гг.), Восточного Тимора.
Уникальный по содержанию и форме подачи материала документальный фильм о выдающемся русском оружейнике и его детище - непревзойденном АК. Автор картины – знаток военного дела, российский государственный деятель Дмитрий Рогозин.
#77Доп. информация: Конструктор стрелкового оружия Михаил Тимофеевич Калашников известен во всем мире. Его имя и его автомат АК – в числе главных символов нашей страны. Изображение автомата АК - в гербах ряда развивающихся государств Латинской Америки и Африки. Телеканал "Россия 1" представляет уникальный по содержанию и форме подачи материала документальный фильм о выдающемся русском оружейнике.
В картине подробно, на основе ранее неизвестных фактов, а также впервые обнародованных кадров кинохроники, рассказывается об истории создания автомата Калашникова и его новейших модификациях, о будущем российского оружейного производства. Об этом в документальном повествовании говорят сам конструктор, его преемники, воины, которые сегодня с легендарным оружием в руках выполняют боевые задачи по защите Отечества.
Особую значимость фильму придает то, что его автор – один из известных в России и международном сообществе знаток военного дела, вице-премьер российского правительства, экс-представитель России в НАТО Дмитрий Рогозин. Журналист–международник по образованию, окончивший МГУ, он в своей работе доказал не только глубокие знания профессии, но и всестороннее владение языком современного документального кино. Картина динамична, построена так, что интересна всем категориям зрителей всех возрастов: от домохозяйки до академика, от школьника до пенсионера.
Автор ввел в "обиход" фильма новейшие, ранее малоизвестные широкому кругу людей концепции развития стрелкового автоматического оружия в России и в мире, сопоставляя их с современными и будущими военными доктринами. Он справедливо утверждает: "На свете есть вещи, которые изменили мир. Одна из них – автомат Калашникова". И это утверждение как бы повторяет ставшее крылатым выражение самого оружейника Михаила Калашникова: "Я говорю всем конструкторам мира: я первый пожму руку тому, кто сделает лучше!" Сказано больше 30 лет назад. Лучше пока никто не сделал. И об этом тоже ярко и динамично рассказывает документальный фильм Дмитрия Рогозина.
Сэмпл: http://multi-up.com/935226
Тип релиза: DVB HD 1080i
Контейнер: TS
Видео: AVC, 1920х1080, 16:9, 8949 Кбит/сек, 25 fps
Аудио: MPEG Audio, 224 Кбит/сек, 48 КГц, 2 канала
Общее
Идентификатор : 16 (0x10)
Полное имя : AK_47.ts
Формат : MPEG-TS
Размер файла : 3,02 Гбайт
Продолжительность : 44 м.
Режим общего битрейта : Переменный
Общий поток : 9652 Кбит/сек
Видео
Идентификатор : 1901 (0x76D)
Идентификатор меню : 901 (0x385)
Формат : AVC
Формат/Информация : Advanced Video Codec
Профиль формата : [email protected]
Параметр CABAC формата : Да
Параметр ReFrames формата : 3 кадра
Идентификатор кодека : 27
Продолжительность : 44 м.
Битрейт : 8949 Кбит/сек
Ширина : 1920 пикселей
Высота : 1080 пикселей
Соотношение сторон : 16:9
Частота кадров : 25,000 кадров/сек
Стандарт вещания : PAL
Цветовое пространство : YUV
Субдискретизация насыщенности : 4:2:0
Битовая глубина : 8 бит
Тип развёртки : Чересстрочная
Порядок развёртки : Верхнее поле первое
Бит/(Пиксели*Кадры) : 0.173
Размер потока : 2,80 Гбайт (93%)
Основные цвета : BT.709
Характеристики трансфера : BT.709
Коэффициенты матрицы : BT.709
Аудио
Идентификатор : 2901 (0xB55)
Идентификатор меню : 901 (0x385)
Формат : MPEG Audio
Версия формата : Version 1
Профиль формата : Layer 2
Идентификатор кодека : 4
Продолжительность : 44 м.
Вид битрейта : Постоянный
Битрейт : 224 Кбит/сек
Каналы : 2 канала
Частота : 48,0 КГц
Метод сжатия : С потерями
Задержка видео : 14 мс.
Размер потока : 71,8 Мбайт (2%)
Язык : std
Язык, дополнительно : Clean effects
   
Торрент: Зарегистрирован [13 янв 2018, 17:27] Скачать торрент Магнет ссылка
Скачать торрент
[ Размер 15.54 КБ / Просмотров 2 ]
Статус:
Проверен
 
.torrent скачан: 1 раз
Размер: 3.02 ГБ (3 244 086 640 байт)
   Стать Автором раздачи
 
 
Цитата

Вернуться в Личности

Кто сейчас на конференции

Сейчас эту тему просматривают: нет зарегистрированных пользователей и гости: 1