Элизабет Тейлор / Elizabeth Tailor: Auction of a lifetime (Майкл Вальдман / Michael Waldman) [2012, Документальный, HDTV1080i]DVO (SET)

 Статистика раздачи 
Размер: 3.77 ГБ   |  Зарегистрирован: 13 янв 2018, 17:27   |   .torrent скачан: 1 раз
Сидеров: 1  [ 0 байт/сек ]     Личеров: 14  [ 0 байт/сек ]  
  
Аватара пользователя
 
Раздал: 0 байт
Скачал: 0 байт
Ратио: Inf.
Сообщения: 103047
Стаж: 7 лет 3 месяца 16 дней

Элизабет Тейлор / Elizabeth Tailor: Auction of a lifetime
Год выпуска: 2012
Страна: Великобритания
Студия: Silver river productions
Жанр: Документальный
Продолжительность: 1:11:52
Перевод: Профессиональный (двухголосый) SET
Русские субтитры: нет
Режиссер: Майкл Вальдман / Michael Waldman
Описание: Этот документальный фильм рассказывает о жизни восхитительной Элизабет Тэйлор сквозь призму бесценных драгоценностей, когда-то принадлежавших звезде, а теперь продающихся на аукционах Нью-Йорка и Лондона.
Качество: HDTV1080i
Формат: TS
Видео кодек: H.264
Аудио кодек: MP2
Видео: AVC 1920x1080 (16:9) 25.000fps Bit rate 6935Kbps Bits/(Pixel*Frame) 0.134
Аудио: MPEG Audio 48000Hz 2ch 192 Kbps
General
ID : C
Complete name : F:\SatRip\HD\Элизабет Тейлор\Элизабет Тейлор_.ts
Format : MPEG-TS
File size : 3.77 GiB
Duration : 1h 11mn
Overall bit rate : 7 499 Kbps
Video
ID : 1602 (0x642)
Menu ID : 602 (0x25A)
Format : AVC
Format/Info : Advanced Video Codec
Format profile : [email protected]
Format settings, CABAC : Yes
Format settings, ReFrames : 3 frames
Duration : 1h 11mn
Bit rate : 6 935 Kbps
Width : 1 920 pixels
Height : 1 080 pixels
Display aspect ratio : 16:9
Frame rate : 25.000 fps
Standard : Component
Color space : YUV
Chroma subsampling : 4:2:0
Bit depth : 8 bits
Scan type : Interlaced
Scan order : Top Field First
Bits/(Pixel*Frame) : 0.134
Stream size : 3.48 GiB (92%)
Color primaries : BT.709-5, BT.1361, IEC 61966-2-4, SMPTE RP177
Transfer characteristics : BT.709-5, BT.1361
Matrix coefficients : BT.709-5, BT.1361, IEC 61966-2-4 709, SMPTE RP177
Audio
ID : 2602 (0xA2A)
Menu ID : 602 (0x25A)
Format : MPEG Audio
Format version : Version 1
Format profile : Layer 2
Duration : 1h 11mn
Bit rate mode : Constant
Bit rate : 192 Kbps
Channel(s) : 2 channels
Sampling rate : 48.0 KHz
Video delay : 28ms
Stream size : 98.7 MiB (3%)
Language : Russian
   
Торрент: Зарегистрирован [13 янв 2018, 17:27] Скачать торрент Магнет ссылка
Скачать торрент
[ Размер 19.28 КБ / Просмотров 2 ]
Статус:
Проверен
 
.torrent скачан: 1 раз
Размер: 3.77 ГБ (4 042 692 404 байт)
   Стать Автором раздачи
 
 
Цитата
  • Похожие торренты
    Ответы
    Просмотры
    Последнее сообщение

Вернуться в Личности

Кто сейчас на конференции

Сейчас эту тему просматривают: нет зарегистрированных пользователей и гости: 1