Наина Ельцина. История в любви (Виолетта Сергеева) [2017, Россия, Документальный, биография, HDTV 1080i]

 Статистика раздачи 
Размер: 2.08 ГБ   |  Зарегистрирован: 13 янв 2018, 17:27   |   .torrent скачан: 0 раз
Сидеров: 0  [ 0 байт/сек ]     Личеров: 0  [ 0 байт/сек ]  
  
Аватара пользователя
 
Раздал: 0 байт
Скачал: 0 байт
Ратио: Inf.
Сообщения: 114824
Стаж: 7 лет 9 месяцев 27 дней

Наина Ельцина. История в любви
Страна: Россия
Студия: т/к Россия-1, Masterskaya, ВГТРК
Жанр: Документальный, биография
Год выпуска: 2017
Продолжительность: 00:52:34
Режиссёр: Виолетта Сергеева
Интервьюер: Андрей Колесников
Описание: Ко дню рождения Наины Иосифовны Ельциной. Они встретились еще в институте. И прожили яркую, интересную, полную тревог жизнь, в которой были взлеты и падения, предательство и разочарования. Она до сих пор говорит о нем только в настоящем времени, с любовью и нежностью произнося "Боренька", "Борис Николаевич". Прошло почти 10 лет с момента его смерти. А пустота после его ухода так ничем и не заполнилась. Время не вылечило. У них была одна жизнь. Одна на двоих. Наина Ельцина - великая женщина и великая жена.
Доп. информация:
Автор релиза -
Источник - HDTV 1080i TS - моя запись с канала Россия-1 HD от 13.03.2017
Сэмпл: https://yadi.sk/i/wTUqOvEy3FeLuG
Рекламы нет!
Качество видео: HDTV 1080i
Формат видео: TS
Видео: MPEG-4 AVC, 1920x1080 (16:9), 25.000 fps, 5179 kbps, 0.100 bit/pixel
Аудио: Русский MP2, 48000 Гц, 2ch, 192 kbps
Общее
Идентификатор : 1 (0x1)
Полное имя : D:\Наина.Ельцина.История.в.любви.2017.HDTV.1080i-ylnian.ts
Формат : MPEG-TS
Размер файла : 2,08 Гбайт
Продолжительность : 52 м.
Режим общего битрейта : Переменный
Общий поток : 5652 Кбит/сек
Видео
Идентификатор : 1178 (0x49A)
Идентификатор меню : 1138 (0x472)
Формат : AVC
Формат/Информация : Advanced Video Codec
Профиль формата : High@L4
Параметр CABAC формата : Да
Параметр ReFrames формата : 4 кадра
Идентификатор кодека : 27
Продолжительность : 52 м.
Битрейт : 5179 Кбит/сек
Ширина : 1920 пикселей
Высота : 1080 пикселей
Соотношение сторон : 16:9
Частота кадров : 25,000 кадров/сек
Стандарт вещания : Component
Цветовое пространство : YUV
Субдискретизация насыщенности : 4:2:0
Битовая глубина : 8 бит
Тип развёртки : Чересстрочная
Метод сохранения типа развёртки : Раздельные поля
Порядок развёртки : Верхнее поле первое
Бит/(Пиксели*Кадры) : 0.100
Размер потока : 1,90 Гбайт (92%)
Цветовой диапазон : Limited
Основные цвета : BT.709
Характеристики трансфера : BT.709
Коэффициенты матрицы : BT.709
Аудио
Идентификатор : 1179 (0x49B)
Идентификатор меню : 1138 (0x472)
Формат : MPEG Audio
Версия формата : Version 1
Профиль формата : Layer 2
Идентификатор кодека : 3
Продолжительность : 52 м.
Вид битрейта : Постоянный
Битрейт : 192 Кбит/сек
Каналы : 2 канала
Частота : 48,0 КГц
Метод сжатия : С потерями
Задержка видео : -80 мс.
Размер потока : 72,2 Мбайт (3%)
Язык : Russian
Не забывайте говорить Спасибо. Не уходите с раздачи!   
Торрент: Зарегистрирован [13 янв 2018, 17:27] Для скачивания .torrent
необходима регистрация
Или скачать с помощью
MediaGet
Статус:
Проверен
 
.torrent скачан: 0 раз
Хэш: af8cbb48e30ab23e019c4da774d10a4ebf47f922
Размер: 2.08 ГБ (2 228 789 820 байт)
   Стать Автором раздачи
   
Цитата

Вернуться в Личности

Кто сейчас на конференции

Сейчас эту тему просматривают: нет зарегистрированных пользователей и гости: 1