С боевого задания не вернулся (Морозов Владимир Сергеевич) [2011, Документальный, hdtv 1080p]

 Статистика раздачи 
Размер: 3.04 ГБ   |  Зарегистрирован: 13 янв 2018, 17:27   |   .torrent скачан: 0 раз
Сидеров: 0  [ 0 байт/сек ]     Личеров: 0  [ 0 байт/сек ]  
  
Аватара пользователя
 
Раздал: 0 байт
Скачал: 0 байт
Ратио: Inf.
Сообщения: 112441
Стаж: 7 лет 7 месяцев 14 дней

С боевого задания не вернулся
Год выпуска: 2011
Страна: Россия
Жанр: Документальный
Продолжительность: 00:32:06
Перевод: Не требуется
Русские субтитры: нет
Режиссер: Морозов Владимир Сергеевич
Текст читает: Дмитрий "Goblin" Пучков
Описание: История о лётчике-штурмовике М.П. Гаврилове, пропашем без вести 30 апреля 1942 года, и найденном через 68 лет после гибели поисковым отрядом "Демянск".
Качество: hdtv
Формат: MP4
Видео кодек: AVC-1
Аудио кодек: AAC
Видео: 1920x1080 (16:9), 25 fps, avc1 13.5 Mbps, 0.258 bit/pixel
Аудио: 44.1 kHz, AAC, 2 ch, 128.00 kbps
Код:
Код: Выделить всё
General
Complete name                    : W:\С боевого задания не вернулся\С боевого задания не вернулся.mp4
Format                           : MPEG-4
Format profile                   : Base Media / Version 2
Codec ID                         : mp42
File size                        : 3.04 GiB
Duration                         : 32mn 6s
Overall bit rate                 : 13.5 Mbps
Encoded date                     : UTC 2011-04-19 16:08:19
Tagged date                      : UTC 2011-04-19 16:08:19
Video
ID                               : 2
Format                           : AVC
Format/Info                      : Advanced Video Codec
Format profile                   : Baseline@L5.0
Format settings, CABAC           : No
Format settings, ReFrames        : 5 frames
Codec ID                         : avc1
Codec ID/Info                    : Advanced Video Coding
Duration                         : 32mn 6s
Bit rate mode                    : Variable
Bit rate                         : 13.4 Mbps
Width                            : 1 920 pixels
Height                           : 1 080 pixels
Display aspect ratio             : 16:9
Frame rate mode                  : Constant
Frame rate                       : 25.000 fps
Standard                         : NTSC
Color space                      : YUV
Chroma subsampling               : 4:2:0
Bit depth                        : 8 bits
Scan type                        : Progressive
Bits/(Pixel*Frame)               : 0.258
Stream size                      : 3.01 GiB (99%)
Language                         : English
Encoded date                     : UTC 2011-04-19 16:08:19
Tagged date                      : UTC 2011-04-19 16:08:19
Audio
ID                               : 1
Format                           : AAC
Format/Info                      : Advanced Audio Codec
Format profile                   : LC
Codec ID                         : 40
Duration                         : 32mn 6s
Bit rate mode                    : Constant
Bit rate                         : 128 Kbps
Channel(s)                       : 2 channels
Channel positions                : Front: L R
Sampling rate                    : 44.1 KHz
Compression mode                 : Lossy
Stream size                      : 29.4 MiB (1%)
Language                         : English
Encoded date                     : UTC 2011-04-19 16:08:19
Tagged date                      : UTC 2011-04-19 16:08:19

Версия 1280х720 находится тут: http://rutracker.org/forum/viewtopic.php?t=3540760
Дополнительные материалы к фильму находятся тут: http://rutracker.org/forum/viewtopic.php?t=3555143
Не забывайте говорить Спасибо. Не уходите с раздачи!   
Торрент: Зарегистрирован [13 янв 2018, 17:27] Для скачивания .torrent
необходима регистрация
Или скачать с помощью
MediaGet
Статус:
Проверен
 
.torrent скачан: 0 раз
Размер: 3.04 ГБ (3 258 976 807 байт)
   Стать Автором раздачи
   
Цитата

Вернуться в Личности

Кто сейчас на конференции

Сейчас эту тему просматривают: нет зарегистрированных пользователей и гости: 1