Валентин Юдашкин. Шик по-русски (Юрий Однопозов) [2013, Документальный, HDTV 1080i]

 Статистика раздачи 
Размер: 2.97 ГБ   |  Зарегистрирован: 13 янв 2018, 17:27   |   .torrent скачан: 0 раз
Сидеров: 0  [ 0 байт/сек ]     Личеров: 0  [ 0 байт/сек ]  
  
Аватара пользователя
 
Раздал: 0 байт
Скачал: 0 байт
Ратио: Inf.
Сообщения: 103047
Стаж: 7 лет 3 месяца 15 дней

Валентин Юдашкин. Шик по-русски
Год выпуска: 2013
Страна: Россия
Студия: Красный квадрат
Жанр: Документальный
Продолжительность: 00:51:59
Перевод: Не требуется
Русские субтитры: нет
Режиссер: Юрий Однопозов
Описание: Валентин Юдашкин – единственный российский модельер, единственный, кто на протяжении 20 лет является постоянным участником показов высокой моды в Париже и других европейских столицах. В фильме зритель заглянет за кулисы мира моды, узнает, как проходят показы от кутюр в столице моды - Париже - и в Москве, как создаётся платье, что происходит на долгом и трудном пути от идеи мастера до подиума. В фильме будет и личная история Валентина Юдашкина. Например, то, каких усилий стоило ему создать один из первых домов моды в России, пережить 90-е годы с их нестабильностью и кризисами, постоянно создавая коллекции от кутюр и представляя их на суд мировой общественности.
В фильме принимают участие: семья Валентина Юдашкина (мама, дочь, жена), Алла Пугачёва, Филипп Киркоров, Надежда Бабкина, Александр Розенбаум, Олег Газманов, Стас Михайлов, Илзе Лиепа, Александр Маршал.
Доп. информация: Релиз -

Рип чистый. Без посторонних надписей. Выкладывается как есть.
Качество: HDTV 1080i
Контейнер: TS
Видео кодек: AVC
Аудио кодек: MP2
Видео: 1920x1080 (16:9) 25.000 fps 7 573 Kbps, 0.146 bit/pixel
Аудио: MPEG Audio 48000Hz stereo 192 Кбит/сек




Код: Выделить всё
General
ID                                       : 1 (0x1)
Complete name                            : D:\Выкладка\Валентин Юдашкин. Шик по-русски ( (2013, Документальный,HDTV 1080i) (MYDIMKA).ts
Format                                   : MPEG-TS
File size                                : 2.97 GiB
Duration                                 : 51mn 59s
Overall bit rate mode                    : Variable
Overall bit rate                         : 8 171 Kbps
Video
ID                                       : 69 (0x45)
Menu ID                                  : 1 (0x1)
Format                                   : AVC
Format/Info                              : Advanced Video Codec
Format profile                           : [email protected]
Format settings, CABAC                   : Yes
Format settings, ReFrames                : 3 frames
Codec ID                                 : 27
Duration                                 : 51mn 59s
Bit rate                                 : 7 573 Kbps
Width                                    : 1 920 pixels
Height                                   : 1 080 pixels
Display aspect ratio                     : 16:9
Frame rate                               : 25.000 fps
Standard                                 : Component
Color space                              : YUV
Chroma subsampling                       : 4:2:0
Bit depth                                : 8 bits
Scan type                                : Interlaced
Scan order                               : Top Field First
Bits/(Pixel*Frame)                       : 0.146
Stream size                              : 2.75 GiB (93%)
Color primaries                          : BT.709
Transfer characteristics                 : BT.709
Matrix coefficients                      : BT.709
Audio
ID                                       : 68 (0x44)
Menu ID                                  : 1 (0x1)
Format                                   : MPEG Audio
Format version                           : Version 1
Format profile                           : Layer 2
Codec ID                                 : 3
Duration                                 : 51mn 58s
Bit rate mode                            : Constant
Bit rate                                 : 192 Kbps
Channel count                            : 2 channels
Sampling rate                            : 48.0 KHz
Compression mode                         : Lossy
Stream size                              : 71.4 MiB (2%)
Language                                 : English
   
Торрент: Зарегистрирован [13 янв 2018, 17:27] Скачать торрент Магнет ссылка
Скачать торрент
[ Размер 30.27 КБ / Просмотров 0 ]
Статус:
Проверен
 
.torrent скачан: 0 раз
Размер: 2.97 ГБ (3 185 694 592 байт)
   Стать Автором раздачи
 
 
Цитата

Вернуться в Личности

Кто сейчас на конференции

Сейчас эту тему просматривают: нет зарегистрированных пользователей и гости: 1