Джастин Бибер: Никогда не говори никогда / Justin Bieber: Never Say Never (Джон М. Чу / Jon Chu) [2011, США, документальный, музыка, BDRemux 1080p] DVO + VO + Original + Subs

 Статистика раздачи 
Размер: 26.73 ГБ   |  Зарегистрирован: 13 янв 2018, 17:26   |   .torrent скачан: 0 раз
Сидеров: 0  [ 0 байт/сек ]     Личеров: 0  [ 0 байт/сек ]  
  
Аватара пользователя
 
Раздал: 0 байт
Скачал: 0 байт
Ратио: Inf.
Сообщения: 109706
Стаж: 7 лет 6 месяцев 9 дней


Джастин Бибер: Никогда не говори никогда / Justin Bieber: Never Say Never
Страна: США
Жанр: документальный, музыка
Год выпуска: 2011
Продолжительность: 01:45:08
Перевод: Любительский (двухголосый закадровый) /ST VIDEO/
Перевод: Любительский (одноголосый закадровый)
Русские субтитры: есть (Перевод - Синхито) [два варианта: полные и на непереведенные надписи]
Режиссер: Джон М. Чу / Jon Chu
В ролях: Джастин Бибер, Boys II Men, Майли Сайрус, Шон Кингстон, Лудакрис, Джейден Смит, Ашер, Дайан Дэйл, Брюс Дэйл, Райан Гуд
Описание: Фильм рассказывает о том, как начинал свою карьеру Джастин Бибер. Молодой парень из простой семьи начинает обретать славу, выложив видеоролик в интернет…

Качество видео: BDRemux (CHDBits)
Формат видео: MKV
Видео кодек: h.264
Аудио кодек: AC3, DTS
Видео: MPEG-4 AVC Video / 31625 kbps / 1080p / 23.976 fps / 16:9 / High Profile 4.1
Аудио : (Rus) Dolby Digital Audio / 5.1 ch / 48 kHz / ~448 kbps (Роли озвучивали: Emnily, Синхито)
Аудио : (Rus) Dolby Digital Audio / 2.0 / 48 kHz / 192 kbps
Аудио : (Eng) DTS-HD Master Audio / 5.1 / 48 kHz / 4123 kbps / 24-bit (DTS Core: 5.1 / 48 kHz / 1509 kbps / 24-bit)

Код:
Код: Выделить всё
General
Complete name                    : L:\  -= MussiC =-\Clips\Джастин Бибер. Никогда не говори никогда [Remux 1080p] (2011. Justin Bieber. Never Say Never).mkv
Format                           : Matroska
File size                        : 26.7 GiB
Duration                         : 1h 45mn
Overall bit rate                 : 36.4 Mbps
Encoded date                     : UTC 2011-06-11 14:53:37
Writing application              : mkvmerge v4.0.0 ('The Stars were mine') сборка от Jun  6 2010 16:18:42
Writing library                  : libebml v1.0.0 + libmatroska v1.0.0
Video
ID                               : 1
Format                           : AVC
Format/Info                      : Advanced Video Codec
Format profile                   : [email protected]
Format settings, CABAC           : Yes
Format settings, ReFrames        : 2 frames
Muxing mode                      : Container [email protected]
Codec ID                         : V_MPEG4/ISO/AVC
Duration                         : 1h 45mn
Bit rate mode                    : Variable
Width                            : 1 920 pixels
Height                           : 1 080 pixels
Display aspect ratio             : 16:9
Frame rate                       : 23.976 fps
Color space                      : YUV
Chroma subsampling               : 4:2:0
Bit depth                        : 8 bits
Scan type                        : Progressive
Audio #1
ID                               : 2
Format                           : AC-3
Format/Info                      : Audio Coding 3
Mode extension                   : CM (complete main)
Codec ID                         : A_AC3
Duration                         : 1h 45mn
Bit rate mode                    : Constant
Bit rate                         : 448 Kbps
Channel(s)                       : 6 channels
Channel positions                : Front: L C R, Side: L R, LFE
Sampling rate                    : 48.0 KHz
Bit depth                        : 16 bits
Stream size                      : 337 MiB (1%)
Title                            : DVO (Emnily, Синхито)
Language                         : Russian
Audio #2
ID                               : 3
Format                           : AC-3
Format/Info                      : Audio Coding 3
Mode extension                   : CM (complete main)
Codec ID                         : A_AC3
Duration                         : 1h 45mn
Bit rate mode                    : Constant
Bit rate                         : 192 Kbps
Channel(s)                       : 2 channels
Channel positions                : Front: L R
Sampling rate                    : 48.0 KHz
Bit depth                        : 16 bits
Stream size                      : 144 MiB (1%)
Title                            : VO
Language                         : Russian
Audio #3
ID                               : 6
Format                           : DTS
Format/Info                      : Digital Theater Systems
Format profile                   : MA
Codec ID                         : A_DTS
Duration                         : 1h 45mn
Bit rate mode                    : Variable
Channel(s)                       : 6 channels
Channel positions                : Front: L C R, Side: L R, LFE
Sampling rate                    : 48.0 KHz
Bit depth                        : 24 bits
Title                            : Original
Language                         : English
Text #1
ID                               : 4
Format                           : UTF-8
Codec ID                         : S_TEXT/UTF8
Codec ID/Info                    : UTF-8 Plain Text
Title                            : full
Language                         : Russian
Text #2
ID                               : 5
Format                           : UTF-8
Codec ID                         : S_TEXT/UTF8
Codec ID/Info                    : UTF-8 Plain Text
Title                            : forced
Language                         : Russian
[/spoiler]
   
Торрент: Зарегистрирован [13 янв 2018, 17:26] Скачать торрент Магнет ссылка
Скачать торрент
[ Размер 134.18 КБ / Просмотров 1 ]
Статус:
Проверен
 
.torrent скачан: 0 раз
Размер: 26.73 ГБ (28 697 222 429 байт)
   Стать Автором раздачи
 
 
Цитата

Вернуться в Личности

Кто сейчас на конференции

Сейчас эту тему просматривают: нет зарегистрированных пользователей и гости: 1