Ник Валленда на высоте небоскребов: обратный отсчет / Countdown to Skyscraper: Live From Chicago (-) [2014, документальный фильм, HDTV 1080i]

 Статистика раздачи 
Размер: 2.7 ГБ   |  Зарегистрирован: 13 янв 2018, 17:26   |   .torrent скачан: 0 раз
Сидеров: 0  [ 0 байт/сек ]     Личеров: 0  [ 0 байт/сек ]  
  
Аватара пользователя
 
Раздал: 0 байт
Скачал: 0 байт
Ратио: Inf.
Сообщения: 102975
Стаж: 7 лет 3 месяца 13 дней

Ник Валленда на высоте небоскребов: обратный отсчет
Countdown to Skyscraper: Live From Chicago

Год выпуска: 2014
Страна: США, Чикаго
Жанр: документальный фильм
Продолжительность: 00:41:53
Перевод: Двухголосый закадровый
Русские субтитры: нет
Режиссер: -
Описание: Команда Криса Джейкобса ждет прибытия Ника Валленды, который пройдет по канату между двумя небоскребами с завязанными глазами.
Сэмпл: https://yadi.sk/i/aWqliHd4cTPTY
Формат: DVB-S2 Remux 1080i
Видео кодек: AVC
Аудио кодеk: AC3
Видео: 1920x1080 (16:9), 25 fps, AVC, ~8300 Кбит/сек
Аудио: Russian: AC3 5.1 (48 kHz / 384 kbps / 16 bit) (Двухголосый закадровый)
English: AC3 5.1 (48 kHz / 384 kbps / 16 bit)
Код:
Код: Выделить всё
Общее
Уникальный идентификатор                 : 182166460791052453961842516623703926108 (0x890BFBF2918FDE03A49D0B2EA4BFE55C)
Полное имя                               : Countdown to Skyscraper. Live From Chicago [HDTV.1080i].mkv
Формат                                   : Matroska
Версия формата                           : Version 4 / Version 2
Размер файла                             : 2,70 Гбайт
Продолжительность                        : 41 м.
Общий поток                              : 9245 Кбит/сек
Дата кодирования                         : UTC 2014-11-03 00:24:58
Программа кодирования                    : mkvmerge v7.3.0 ('Nouages') 64bit built on Oct 22 2014 18:53:34
Библиотека кодирования                   : libebml v1.3.0 + libmatroska v1.4.1
DURATION                                 : 00:41:52.896000000
NUMBER_OF_FRAMES                         : 78528
NUMBER_OF_BYTES                          : 120619008
_STATISTICS_WRITING_APP                  : mkvmerge v7.3.0 ('Nouages') 64bit built on Oct 22 2014 18:53:34
_STATISTICS_WRITING_DATE_UTC             : 2014-11-03 00:24:58
_STATISTICS_TAGS                         : BPS DURATION NUMBER_OF_FRAMES NUMBER_OF_BYTES
Видео
Идентификатор                            : 1
Формат                                   : AVC
Формат/Информация                        : Advanced Video Codec
Профиль формата                          : [email protected]
Параметр CABAC формата                   : Да
Параметр ReFrames формата                : 4 кадра
Идентификатор кодека                     : V_MPEG4/ISO/AVC
Продолжительность                        : 41 м.
Битрейт                                  : 8293 Кбит/сек
Ширина                                   : 1920 пикселей
Высота                                   : 1080 пикселей
Соотношение сторон                       : 16:9
Режим частоты кадров                     : Постоянный
Частота кадров                           : 25,000 кадров/сек
Стандарт вещания                         : Component
Цветовое пространство                    : YUV
Субдискретизация насыщенности            : 4:2:0
Битовая глубина                          : 8 бит
Тип развёртки                            : Чересстрочная
Порядок развёртки                        : Верхнее поле первое
Бит/(Пиксели*Кадры)                      : 0.160
Размер потока                            : 2,43 Гбайт (90%)
Заголовок                                : Countdown to Skyscraper: Live From Chicago
Язык                                     : English
Default                                  : Да
Forced                                   : Да
Основные цвета                           : BT.709
Характеристики трансфера                 : BT.709
Коэффициенты матрицы                     : BT.709
Аудио #1
Идентификатор                            : 2
Формат                                   : AC-3
Формат/Информация                        : Audio Coding 3
Расширение режима                        : CM (complete main)
Параметр Endianness формата              : Big
Идентификатор кодека                     : A_AC3
Продолжительность                        : 41 м.
Вид битрейта                             : Постоянный
Битрейт                                  : 384 Кбит/сек
Каналы                                   : 6 каналов
Расположение каналов                     : Front: L C R, Side: L R, LFE
Частота                                  : 48,0 КГц
Битовая глубина                          : 16 бит
Метод сжатия                             : С потерями
Размер потока                            : 115 Мбайт (4%)
Заголовок                                : Двухголосый закадровый
Язык                                     : Russian
Default                                  : Да
Forced                                   : Да
Аудио #2
Идентификатор                            : 3
Формат                                   : AC-3
Формат/Информация                        : Audio Coding 3
Расширение режима                        : CM (complete main)
Параметр Endianness формата              : Big
Идентификатор кодека                     : A_AC3
Продолжительность                        : 41 м.
Вид битрейта                             : Постоянный
Битрейт                                  : 384 Кбит/сек
Каналы                                   : 6 каналов
Расположение каналов                     : Front: L C R, Side: L R, LFE
Частота                                  : 48,0 КГц
Битовая глубина                          : 16 бит
Метод сжатия                             : С потерями
Размер потока                            : 115 Мбайт (4%)
Заголовок                                : Original
Язык                                     : English
Default                                  : Нет
Forced                                   : Нет

   
Торрент: Зарегистрирован [13 янв 2018, 17:26] Скачать торрент Магнет ссылка
Скачать торрент
[ Размер 14.12 КБ / Просмотров 0 ]
Статус:
Проверен
 
.torrent скачан: 0 раз
Размер: 2.7 ГБ (2 904 068 750 байт)
   Стать Автором раздачи
 
 
Цитата

Вернуться в Личности

Кто сейчас на конференции

Сейчас эту тему просматривают: нет зарегистрированных пользователей и гости: 1