Хроники Шаннары / The Shannara Chronicles / Сезон 2 / Серии: 1-10 (10) (Брэд Тернер) [2017, США, фантастика, фэнтези, приключения, WEB-DL 720p] MVO (AlexFilm) + Original

 Статистика раздачи 
Размер: 11.15 ГБ   |  Зарегистрирован: 30 мар 2018, 11:10   |   .torrent скачан: 264 раз
Сидеров: 30  [ 0 байт/сек ]     Личеров: 8  [ 0 байт/сек ]  
  
Аватара пользователя
 
Раздал: 9.18 ГБ
Скачал: 2.38 ГБ
Ратио: 3.852
Сообщения: 843
Стаж: 5 лет 3 месяца 27 дней

Год выпуска: 2017
Страна: США
Жанр: фантастика, фэнтези, приключения
Продолжительность: ~43 мин
Озвучание: профессиональное многоголосое закадровое (AlexFilm)
Субтитры: нет
Режиссёры: Брэд Тернер, Джонатан Либесман, Джеймс Маршалл
В ролях: Ивана Бакеро, Дэниэл МакФерсон, Джон Рис-Дэвис, Маркус Ванко, Брук Уильямс, Ману Беннетт, Остин Роберт Батлер, Поппи Дрейтон, Аарон Якубенко и др.
Описание: События сериала происходят в далёком будущем. Войны разделили Северную Америку на 4 части. На какой-то из них обитают эльфы, на иной — люди, на третьей — тролли и на четвёртой — дворфы. Основными персонажами сериала окажутся отпрыски древнего рода эльфов — Шаннара. Именно от них будет зависеть будущая судьба планеты….

Релиз:
Перевод: Константин Кривоногов
Монтаж и сведение звука: Михаил Шорыгин
Роли озвучивали:

Татьяна Манетина
Таисия Тришина
Кирилл Патрино
Константин Федосеев
Роман Сопко
Михаил Шорыгин
Михаил Суслов

Сэмпл: http://sendfile.su/1369035

Качество: WEB-DL 720p
Формат: MKV
Видео: 1280x720 (16:9), 23,976 fps, MPEG-4 AVC ~3600 kbps avg, 0.164 bit/pixel
Аудио Rus: 48 kHz, AC3 Dolby Digital, 2/0 (L,R) ch, ~192.00 kbps
Аудио Eng: 48 kHz, AC3 Dolby Digital, 2/0 (L,R) ch, ~192.00 kbps
Субтитры: нет
Реклама: аудио (два раза, в начале 6 и в конце 10 сек.)

Формат : Matroska
Версия формата : Version 4 / Version 2
Размер файла : 1,25 Гбайт
Продолжительность : 43 м. 31 с.
Режим общего битрейта : Переменный
Общий поток : 4095 Кбит/сек
Название фильма : The Shannara Chronicles 2x01 @ AlexFilm
Дата кодирования : UTC 2017-10-13 11:23:46
Программа кодирования : mkvmerge v7.1.0 ('Good Love') 64bit built on Jul 27 2014 13:06:55
Библиотека кодирования : libebml v1.3.0 + libmatroska v1.4.1[br]Видео
Идентификатор : 1
Формат : AVC
Формат/Информация : Advanced Video Codec
Профиль формата : [email protected]
Параметр CABAC формата : Да
Параметр ReFrames формата : 5 кадров
Идентификатор кодека : V_MPEG4/ISO/AVC
Продолжительность : 43 м. 31 с.
Вид битрейта : Переменный
Битрейт : 3630 Кбит/сек
Максимальный битрейт : 4500 Кбит/сек
Ширина : 1280 пикселей
Высота : 720 пикселей
Соотношение сторон : 16:9
Режим частоты кадров : Постоянный
Частота кадров : 23,976 (24000/1001) кадра/сек
Цветовое пространство : YUV
Субдискретизация насыщенности : 4:2:0
Битовая глубина : 8 бит
Тип развёртки : Прогрессивная
Бит/(Пиксели*Кадры) : 0.164
Размер потока : 1,10 Гбайт (89%)
Default : Да
Forced : Нет
Цветовой диапазон : Limited
Основные цвета : BT.709
Характеристики трансфера : BT.709
Коэффициенты матрицы : BT.709[br]Аудио #1
Идентификатор : 2
Формат : AC-3
Формат/Информация : Audio Coding 3
Расширение режима : CM (complete main)
Параметр Endianness формата : Big
Идентификатор кодека : A_AC3
Продолжительность : 43 м. 31 с.
Вид битрейта : Постоянный
Битрейт : 192 Кбит/сек
Каналы : 2 канала
Расположение каналов : Front: L R
Частота : 48,0 КГц
Частота кадров : 31,250 кадров/сек (1536 spf)
Метод сжатия : С потерями
Размер потока : 59,8 Мбайт (5%)
Заголовок : DD2.0 AlexFilm
Язык : Russian
Default : Да
Forced : Нет[br]Аудио #2
Идентификатор : 3
Формат : AC-3
Формат/Информация : Audio Coding 3
Расширение режима : CM (complete main)
Параметр Endianness формата : Big
Идентификатор кодека : A_AC3
Продолжительность : 43 м. 31 с.
Вид битрейта : Постоянный
Битрейт : 192 Кбит/сек
Каналы : 2 канала
Расположение каналов : Front: L R
Частота : 48,0 КГц
Частота кадров : 31,250 кадров/сек (1536 spf)
Метод сжатия : С потерями
Размер потока : 59,8 Мбайт (5%)
Заголовок : DD2.0 Original
Язык : English
Default : Нет
Forced : Нет[br]Меню
00:00:00.000 : en:(Unnamed scene)
00:00:05.000 : en:(Unnamed scene)
00:01:36.000 : en:(Unnamed scene)
00:02:50.000 : en:(Unnamed scene)
00:07:20.000 : en:(Unnamed scene)
00:07:58.000 : en:(Unnamed scene)
00:10:07.000 : en:(Unnamed scene)
00:11:47.000 : en:(Unnamed scene)
00:13:49.000 : en:(Unnamed scene)
00:20:32.000 : en:(Unnamed scene)
00:22:25.000 : en:(Unnamed scene)
00:25:21.000 : en:(Unnamed scene)
00:27:56.000 : en:(Unnamed scene)
00:31:08.000 : en:(Unnamed scene)
00:34:26.000 : en:(Unnamed scene)
00:36:06.000 : en:(Unnamed scene)
00:38:45.000 : en:(Unnamed scene)
00:42:54.000 : en:(Unnamed scene)

Внимание! Раздача ведётся путём добавления новых серий; при каждом добавлении создаётся новый торрент. Чтобы начать докачку новой серии, пользователям необходимо сделать следующее:
(1) остановить скачивание,
(2) удалить старый торрент у себя из клиента (старые серии удалять не надо),
(3) скачать новый торрент и запустить его у себя в клиенте вместо старого, при этом указать клиенту путь в старую папку куда и должно происходить скачивание новых серий.
Ваш клиент при этом должен произвести хеширование (проверку) старой папки (если не производит сам - помогите ему сделать это), и будет докачивать только те серии которых у вас ещё нет. Старые серии при этом не удаляются, а продолжают раздаваться!
Eсли вы уже удалили старые серии, то предотвратить повторную закачку старых серий можно, отжав галочку в соответствующих местах при запуске нового торрента. По возможности, желательно не удалять старые серии как можно дольше чтобы релизёр не столько продолжал раздавать старые серии, а смог сконцентрироваться на новых.
   
Торрент: Зарегистрирован [30 мар 2018, 11:10] Хроники Шаннары / The Shannara Chronicles Скачать торрент Магнет ссылка
Скачать торрент
[ Размер 29.29 КБ / Просмотров 4 ]
Статус:
Проверен
 
.torrent скачан: 264 раз
Размер: 11.15 ГБ (11 977 505 796 байт)
   Стать Автором раздачи
 
 
Цитата
  • Похожие торренты
    Ответы
    Просмотры
    Последнее сообщение

Вернуться в Хроники Шаннары / The Shannara Chronicles

Кто сейчас на конференции

Сейчас эту тему просматривают: нет зарегистрированных пользователей и гости: 1