Летящий Пенджаб / Обдолбанный Пенджаб / Udta Punjab (2016) HDRip | L2

 Статистика раздачи 
Размер: 1.47 ГБ   |  Зарегистрирован: 30 мар 2018, 07:48   |   .torrent скачан: 2 раз
Сидеров: 299  [ 0 байт/сек ]     Личеров: 100  [ 0 байт/сек ]  
  
Аватара пользователя
Я на сайте
 
Раздал: 2.97 ТБ
Скачал: 11.01 ГБ
Ратио: 276.626
Сообщения: 182919
Стаж: 1 год 6 месяцев 1 день

Информация о фильме
Название: Летящий Пенджаб / Обдолбанный Пенджаб
Оригинальное название: Udta Punjab
Год выхода: 2016
Жанр: Боевик, драма, криминал
Режиссер: Абхишек Чаубей
В ролях: Шахид Капур, Карина Капур, Алия Бхатт, Дилджит Досанджх, Сатиш Каушик, Сухаил Наяр, Прабхджот Сингх, Таран Баджадж, Харприт Сингх, Манав Видж
О фильме:
Томми Сингх, он же Томми-Молот – рок-звезда, кумир молодёжи Пенджаба, его день начинается с кокса и им же заканчивается. Пинку – простая деревенская девушка, мечтающая о хорошей жизни с помощью легких денег. Прит Сахни – врач-нарколог, ведущая одиночную борьбу со всеми наркоманами Пенджаба. Сартадж Сингх – коп-взяточник, не брезгующий поесть за счет очередных наркодилеров. Четыре истории, которые переплетаются между собой по случайному стечению обстоятельств.

Страна: Индия
Студия: Balaji Motion Pictures, Phantom Films, Prime Focus
Продолжительность: 02:28:38
Перевод: Любительский двухголосый [HONEY&HASEENA]
Озвучка: Давид Петросян и Маргарита Сахно
Перевод и редакция: Honey&Haseena
Файл
Формат: AVI
Качество: HDRip
Видео: XviD, 1212 Кбит/с, 720x304, 24 кадр/с
Звук: AC3, 2 ch, 192 Кбит/с
Субтитры: Русские (только на песни)
General
Complete name : I:Udta.Punjab.2016.HDRip.XviD.AC3.avi
Format : AVI
Format/Info : Audio Video Interleave
File size : 1.47 GiB
Duration : 2 h 28 min
Overall bit rate : 1 413 kb/s
Writing application : VirtualDubMod 1.5.10.3 (build 2550/release)
Writing library : VirtualDubMod build 2550/release
Video
ID : 0
Format : MPEG-4 Visual
Format profile : Advanced Simple@L5
Format settings, BVOP : 1
Format settings, QPel : No
Format settings, GMC : No warppoints
Format settings, Matrix : Default (MPEG)
Codec ID : XVID
Codec ID/Hint : XviD
Duration : 2 h 28 min
Bit rate : 1 212 kb/s
Width : 720 pixels
Height : 304 pixels
Display aspect ratio : 2.35:1
Frame rate : 24.000 FPS
Color space : YUV
Chroma subsampling : 4:2:0
Bit depth : 8 bits
Scan type : Progressive
Compression mode : Lossy
Bits/(Pixel*Frame) : 0.231
Stream size : 1.26 GiB (86%)
Writing library : XviD 1.2.1 (UTC 2008-12-04)
Audio
ID : 1
Format : AC-3
Format/Info : Audio Coding 3
Format settings, Endianness : Big
Codec ID : 2000
Duration : 2 h 28 min
Bit rate mode : Constant
Bit rate : 192 kb/s
Channel(s) : 2 channels
Channel positions : Front: L R
Sampling rate : 48.0 kHz
Frame rate : 31.250 FPS (1536 spf)
Bit depth : 16 bits
Compression mode : Lossy
Stream size : 204 MiB (14%)
Alignment : Split accross interleaves
Interleave, duration : 42 ms (1.00 video frame)
Interleave, preload duratio : 500 ms
Service kind : Complete Main
Не забывайте говорить Спасибо. Не уходите с раздачи!   
Торрент: Зарегистрирован [30 мар 2018, 07:48] Для скачивания .torrent
необходима регистрация
Или скачать с помощью
MediaGet
Статус:
Проверен
 
.torrent скачан: 2 раз
Размер: 1.47 ГБ (1 575 015 341 байт)
   Стать Автором раздачи
   
Цитата

Вернуться в Индийское кино

Кто сейчас на конференции

Сейчас эту тему просматривают: нет зарегистрированных пользователей и гости: 1