Пять пальцев из стали / Five fingers of steel (1982) VHSRip [AVO]

 Статистика раздачи 
Размер: 1.47 ГБ   |  Зарегистрирован: 12 янв 2018, 20:14   |   .torrent скачан: 0 раз
Сидеров: 0  [ 0 байт/сек ]     Личеров: 0  [ 0 байт/сек ]  
  
Аватара пользователя
Автор темы
Раздал: 1.2 ТБ
Скачал: 3.51 ГБ
Ратио: 350.537
Сообщения: 11706
Стаж: 9 месяцев 27 дней

Пять пальцев из стали / Five fingers of steel (1982) VHSRip

Производство: Гонконг
Жанр: Боевик

Режиссер: Винсент Люн
Актеры: Тиэт Во Чу, Янг Ли Хванг, Hsueh-Ming Liao, Биу Чан Вонг

Описание:
В безымянном китайском городишке создаётся охранная компания, предоставляющая услуги по сопровождению людей и грузов. Сразу же, в день открытия, она подвергается нападению конкурентов, по сути являющихся легализованной бандой. В её главе стоит жестокий, беспощадный и, к сожалению, отличный боец, не допускающий даже мысли о соперниках. Его учеником и помощником является сын самого губернатора, что ещё больше укрепляет безнаказанность. Однако, они получают достойный отпор, им приходится ретироваться в надежде на скорую месть. Вскоре, найдя подход к губернатору, преступникам удаётся убедить того доверить новичкам перевозку большого количества золота в Пекин, дабы самим перехватить ценный груз и окончательно устранить угрозу своей монополии...

http://www.imdb.com/title/tt0182838/?ref_=plg_rt_1

Релиз от: Mastersnof ®

Продолжительность: 01:27:57
Качество видео: VHSRip
Перевод: Авторский одноголосый
Субтитры: отсутствуют

Видео: Xvid, 704x536, ~2189 kb/s
Аудио: MP3, 2 ch, 192 kb/s - Русский - авторский (Сергей Кузнецов)
Код: Выделить всё
General
Complete name               : Пять пальцев из стали-1982 (VHSRip By lexx256).avi
Format                      : AVI
Format/Info                 : Audio Video Interleave
Format profile              : OpenDML
File size                   : 1.47 GiB
Duration                    : 1 h 27 min
Overall bit rate            : 2 396 kb/s
Writing application         : Lavf57.71.100

Video
ID                          : 0
Format                      : MPEG-4 Visual
Format profile              : Advanced [email protected]
Format settings             : BVOP1
Format settings, BVOP       : 1
Format settings, QPel       : No
Format settings, GMC        : No warppoints
Format settings, Matrix     : Default (MPEG)
Codec ID                    : XVID
Codec ID/Hint               : XviD
Duration                    : 1 h 27 min
Bit rate                    : 2 189 kb/s
Width                       : 704 pixels
Height                      : 536 pixels
Display aspect ratio        : 4:3
Frame rate                  : 25.000 FPS
Color space                 : YUV
Chroma subsampling          : 4:2:0
Bit depth                   : 8 bits
Scan type                   : Progressive
Original scan type          : Interlaced
Original scan order         : Top Field First
Compression mode            : Lossy
Bits/(Pixel*Frame)          : 0.232
Stream size                 : 1.35 GiB (91%)
Writing library             : XviD 67

Audio
ID                          : 1
Format                      : MPEG Audio
Format version              : Version 1
Format profile              : Layer 3
Format settings             : Joint stereo / MS Stereo
Mode                        : Joint stereo
Mode extension              : MS Stereo
Codec ID                    : 55
Codec ID/Hint               : MP3
Duration                    : 1 h 27 min
Bit rate mode               : Constant
Bit rate                    : 192 kb/s
Channel(s)                  : 2 channels
Sampling rate               : 48.0 kHz
Compression mode            : Lossy
Stream size                 : 121 MiB (8%)
Alignment                   : Aligned on interleaves
Interleave, duration        : 24  ms (0.60 video frame)
Writing library             : LAMEMоr№?ыm /  xщxА

Скриншоты:




Время раздачи: До первых скачавших (до появления первых 3-5 скачавших)
   
Торрент: Зарегистрирован [12 янв 2018, 20:14] Скачать торрент Магнет ссылка
Скачать торрент
[ Размер 30.29 КБ / Просмотров 2 ]
Статус:
Проверен
 
.torrent скачан: 0 раз
Размер: 1.47 ГБ (1 580 451 446 байт)
   
 
 
Цитата
  • Похожие торренты
    Ответы
    Просмотры
    Последнее сообщение

Вернуться в Азиатское кино (Rips)

Кто сейчас на конференции

Сейчас эту тему просматривают: нет зарегистрированных пользователей и гости: 1