Брат / Брат 2: Дилогия (1997/2000) WEB-DLRip [H.264] [MP4|1024x576]

 Статистика раздачи 
Размер: 3.14 ГБ   |  Зарегистрирован: 12 янв 2018, 17:31   |   .torrent скачан: 0 раз
Сидеров: 0  [ 0 байт/сек ]     Личеров: 0  [ 0 байт/сек ]  
  
Аватара пользователя
Автор темы
Раздал: 0 байт
Скачал: 0 байт
Ратио: Inf.
Сообщения: 9897
Стаж: 6 лет 11 месяцев 4 дня
Откуда: Rossiya

Брат / Брат 2: Дилогия (1997/2000) WEB-DLRip

Производство: Россия / Студия Горького, Кинокомпания CTB, Роскомкино
Жанр: Боевик, криминал, драма, музыка

Режиссер: Алексей Балабанов
Актеры: Сергей Бодров мл., Виктор Сухоруков, Светлана Письмиченко, Мария Жукова, Юрий Кузнецов, Василиса Стрельникова, Константин Анисимов, Алексей Севостьянов, Андрей Федорцов, Андрей Краско, Вячеслав Бутусов, Игорь Шибанов, Сергей Дебижев

Описание:
Культовая дилогия о «лихих 90-х» Алексея Балабанова с Сергеев Бодровым в главной роли. Герой «Брата», Данила Багров, стал первым настоящим героем постсоветского кинематографа, создавшим практически собственную мифологию и систему ценностей, который всеми способами пытался восстанавливать справедливость.

Возраст: 16+ (зрителям, достигшим 16 лет)

Релиз от: NNMClub

Продолжительность: 01:35:24 | 02:02:40
Качество видео: WEB-DLRip
Перевод: Не требуется, русский
Субтитры: Отсутствуют
Брат (1997) WEB-DLRip

#77Производство: Россия / Студия Горького, Кинокомпания CTB, Роскомкино
Жанр: Боевик, драма, криминал, музыка

Режиссер: Алексей Балабанов
Актеры: Сергей Бодров мл., Виктор Сухоруков, Светлана Письмиченко, Мария Жукова, Юрий Кузнецов, Сергей Мурзин, Ирина Ракшина, Анатолий Журавлев, Андрей Федорцов, Андрей Краско и другие.

Описание:
Демобилизованный из армии, Данила Багров вернулся в родной городок. Но скучная жизнь российской провинции не устраивала его, и он решился податься в Петербург, где, по слухам, уже несколько лет процветает его старший брат. Данила нашел брата. Но все оказалось не так просто — брат был наемным убийцей…



Возраст: 16+ (зрителям, достигшим 16 лет)
Дата мировой премьеры: 17 мая 1997

Релиз от: NNMClub
Продолжительность: 01:35:24
Качество видео: WEB-DLRip
Перевод: Не требуется, русский
Субтитры: Отсутствуют

Видео: AVC/H.264 ([email protected]), 1024x576 (16:9), 1 944 Kbps
Аудио: AAC LC, 48.0 KHz, 2 ch, 160 Kbps, VBR
Код: Выделить всё
General
Complete name                            : C:\Downloads\Брат.Брат-2.Дилогия.(1997.2000).576p.WEB-DLRip.NNMclub\Брат.1997.576p.WEB-DLRip.AAA.x264.NNMclub.mp4
Format                                   : MPEG-4
Format profile                           : Base Media / Version 2
Codec ID                                 : mp42 (mp42/isom)
File size                                : 1.41 GiB
Duration                                 : 1 h 35 min
Overall bit rate mode                    : Variable
Overall bit rate                         : 2 109 kb/s
Movie name                               : Брат
Performer                                : Aleksey Balabanov
Director                                 : Aleksey Balabanov
Actor                                    : Sergei Bodrov Jr. / Svetlana Pismichenko / Mariya Zhukova / Yuriy Kuznetsov / Irina Rakshina / Sergei Murzin / Igor Shibanov / Viktor Sukhorukov / Andrey Fedortsov / Vladimir Ermilov
Screenplay by                            : Aleksey Balabanov
Producer                                 : Sergey Selyanov
Production studio                        : CTB Film Company
Genre                                    : боевик, криминал, триллер
ContentType                              : Short Film
Description                              : Демобилизованный из армии, Данила Багров вернулся в родной городок. Но скучная жизнь российской провинции не устраивала его, и он решился податься в Петербург, где по слухам уже несколько лет процветает его старший брат. Данила нашел брата. Но все оказалось не так просто - брат был наемным убийцей…
Recorded date                            : 1997-01-01
Encoded date                             : UTC 2017-06-11 08:52:39
Tagged date                              : UTC 2017-06-11 08:57:31
Cover                                    : Yes
LongDescription                          : Демобилизованный из армии, Данила Багров вернулся в родной городок. Но скучная жизнь российской провинции не устраивала его, и он решился податься в Петербург, где по слухам уже несколько лет процветает его старший брат. Данила нашел брата. Но все оказалось не так просто - брат был наемным убийцей…
ContentRating                            : mpaa|Unrated|???|

Video
ID                                       : 1
Format                                   : AVC
Format/Info                              : Advanced Video Codec
Format profile                           : [url=http://nnm-club.name/mailto:[email protected]][email protected][/url]
Format settings, CABAC                   : Yes
Format settings, ReFrames                : 3 frames
Codec ID                                 : avc1
Codec ID/Info                            : Advanced Video Coding
Duration                                 : 1 h 35 min
Bit rate                                 : 1 944 kb/s
Width                                    : 1 024 pixels
Height                                   : 576 pixels
Display aspect ratio                     : 16:9
Frame rate mode                          : Constant
Frame rate                               : 25.000 FPS
Color space                              : YUV
Chroma subsampling                       : 4:2:0
Bit depth                                : 8 bits
Scan type                                : Progressive
Bits/(Pixel*Frame)                       : 0.132
Stream size                              : 1.30 GiB (92%)
Writing library                          : x264 core 150 r2833 df79067
Encoding settings                        : cabac=1 / ref=3 / deblock=1:-3:-3 / analyse=0x1:0x131 / me=umh / subme=7 / psy=1 / psy_rd=1.05:0.15 / mixed_ref=1 / me_range=32 / chroma_me=1 / trellis=2 / 8x8dct=0 / cqm=0 / deadzone=21,11 / fast_pskip=0 / chroma_qp_offset=-3 / threads=12 / lookahead_threads=2 / sliced_threads=0 / nr=0 / decimate=0 / interlaced=0 / bluray_compat=0 / constrained_intra=0 / bframes=3 / b_pyramid=1 / b_adapt=2 / b_bias=0 / direct=3 / weightb=1 / open_gop=0 / weightp=0 / keyint=250 / keyint_min=23 / scenecut=40 / intra_refresh=0 / rc_lookahead=80 / rc=2pass / mbtree=1 / bitrate=1944 / ratetol=1.0 / qcomp=0.60 / qpmin=0 / qpmax=69 / qpstep=4 / cplxblur=20.0 / qblur=0.5 / vbv_maxrate=10000 / vbv_bufsize=10000 / nal_hrd=none / filler=0 / ip_ratio=1.40 / aq=1:1.00
Language                                 : Russian
Encoded date                             : UTC 2017-06-11 08:52:39
Tagged date                              : UTC 2017-06-11 08:57:31
Color range                              : Limited
Matrix coefficients                      : BT.709
Menus                                    : 3

Audio
ID                                       : 2
Format                                   : AAC
Format/Info                              : Advanced Audio Codec
Format profile                           : LC
Codec ID                                 : 40
Duration                                 : 1 h 35 min
Source duration                          : 1 h 35 min
Bit rate mode                            : Variable
Nominal bit rate                         : 160 kb/s
Maximum bit rate                         : 165 kb/s
Channel(s)                               : 2 channels
Channel positions                        : Front: L R
Sampling rate                            : 48.0 kHz
Frame rate                               : 46.875 FPS (1024 spf)
Compression mode                         : Lossy
Source stream size                       : 109 MiB (8%)
Language                                 : Russian
Default                                  : Yes
Alternate group                          : 1
Encoded date                             : UTC 2017-06-11 08:52:39
Tagged date                              : UTC 2017-06-11 08:57:31

Menu
ID                                       : 3
Codec ID                                 : text
Duration                                 : 1 h 35 min
Language                                 : English
Encoded date                             : UTC 2017-06-11 08:57:31
Tagged date                              : UTC 2017-06-11 08:57:31
Menu For                                 : 1
00:00:00.000                             : Глава 1
00:04:59.000                             : Глава 2
00:10:21.000                             : Глава 3
00:16:45.000                             : Глава 4
00:22:24.000                             : Глава 5
00:28:21.999                             : Глава 6
00:33:37.000                             : Глава 7
00:39:21.000                             : Глава 8
00:44:59.000                             : Глава 9
00:50:41.000                             : Глава 10
00:56:22.000                             : Глава 11
01:02:28.000                             : Глава 12
01:08:49.000                             : Глава 13
01:14:25.000                             : Глава 14
01:19:56.000                             : Глава 15
01:26:49.000                             : Глава 16
01:31:44.000                             : Глава 17
Bit rate mode                            : VBR

Скриншоты:


Брат 2 (2000) WEB-DLRip
«Данила возвращается!»

#77Производство: Россия, США / Кинокомпания CTB
Жанр: Боевик, криминал

Режиссер: Алексей Балабанов
Актеры: Сергей Бодров мл., Виктор Сухоруков, Сергей Маковецкий, Ирина Салтыкова, Кирилл Пирогов, Александр Дьяченко, Дарья Юргенс, Александр Наумов, Александр Карамнов, Гэри Хьюстон и другие.

Описание:
Участвуя в программе на телевидении, Данила Багров встречает своих друзей по Чечне. Одного из них внезапно убивают. Данила знает, что у того были неприятности из-за брата-хоккеиста в Америке. Данила должен разобраться. Он вылетает в Америку и для компании берёт с собой брата. Теперь его фотография ходит по рукам русской и американской мафии. Новоявленные «Аль Капоне» понимают, что нарвались на профессионала…



Возраст: 16+ (зрителям, достигшим 16 лет)
Дата мировой премьеры: 30 августа 2000

Релиз от: NNMClub
Продолжительность: 02:02:40
Качество видео: WEB-DLRip
Перевод: Не требуется, русский
Субтитры: Отсутствуют

Видео: AVC/H.264 ([email protected]), 1024x576 (16:9), 1 855 Kbps
Аудио: AAC LC, 48.0 KHz, 2 ch, 160 Kbps, VBR
Код: Выделить всё
General
Complete name                            : C:\Downloads\Брат.Брат-2.Дилогия.(1997.2000).576p.WEB-DLRip.NNMclub\Брат-2.2000.576p.WEB-DLRip.AAA.x264.NNMclub.mp4
Format                                   : MPEG-4
Format profile                           : Base Media / Version 2
Codec ID                                 : mp42 (mp42/isom)
File size                                : 1.73 GiB
Duration                                 : 2 h 2 min
Overall bit rate mode                    : Variable
Overall bit rate                         : 2 020 kb/s
Movie name                               : Брат 2
Performer                                : Aleksey Balabanov
Director                                 : Aleksey Balabanov
Actor                                    : Sergei Bodrov Jr. / Viktor Sukhorukov / Aleksandr Dyachenko / Kirill Pirogov / Gary Houston / Sergei Makovetsky / Dmitriy Orlov / Konstantin Murzenko / Dariya Lesnikova
Screenplay by                            : Aleksey Balabanov
Producer                                 : Sergey Selyanov
Genre                                    : драма, триллер
ContentType                              : Short Film
Description                              : Второй фильм о культовом русском герое 90-х - "Брат 2". Участвуя в программе на телевидении, Данила Багров встречает своих друзей по Чечне. Одного из них внезапно убивают. Данила знает, что у убитого были неприятности из-за брата - хоккеиста, играющего за американский клуб. Данила должен разобраться.
Recorded date                            : 2000-01-01
Encoded date                             : UTC 2017-06-11 09:05:52
Tagged date                              : UTC 2017-06-11 09:12:26
Cover                                    : Yes
LongDescription                          : Второй фильм о культовом русском герое 90-х - "Брат 2". Участвуя в программе на телевидении, Данила Багров встречает своих друзей по Чечне. Одного из них внезапно убивают. Данила знает, что у убитого были неприятности из-за брата - хоккеиста, играющего за американский клуб. Данила должен разобраться.
ContentRating                            : mpaa|Unrated|???|

Video
ID                                       : 1
Format                                   : AVC
Format/Info                              : Advanced Video Codec
Format profile                           : [url=http://nnm-club.name/mailto:[email protected]]M[email protected][/url]
Format settings, CABAC                   : Yes
Format settings, ReFrames                : 3 frames
Codec ID                                 : avc1
Codec ID/Info                            : Advanced Video Coding
Duration                                 : 2 h 2 min
Bit rate                                 : 1 855 kb/s
Width                                    : 1 024 pixels
Height                                   : 576 pixels
Display aspect ratio                     : 16:9
Frame rate mode                          : Constant
Frame rate                               : 25.000 FPS
Color space                              : YUV
Chroma subsampling                       : 4:2:0
Bit depth                                : 8 bits
Scan type                                : Progressive
Bits/(Pixel*Frame)                       : 0.126
Stream size                              : 1.59 GiB (92%)
Writing library                          : x264 core 150 r2833 df79067
Encoding settings                        : cabac=1 / ref=3 / deblock=1:-3:-3 / analyse=0x1:0x131 / me=umh / subme=7 / psy=1 / psy_rd=1.05:0.15 / mixed_ref=1 / me_range=32 / chroma_me=1 / trellis=2 / 8x8dct=0 / cqm=0 / deadzone=21,11 / fast_pskip=0 / chroma_qp_offset=-3 / threads=12 / lookahead_threads=2 / sliced_threads=0 / nr=0 / decimate=0 / interlaced=0 / bluray_compat=0 / constrained_intra=0 / bframes=3 / b_pyramid=1 / b_adapt=2 / b_bias=0 / direct=3 / weightb=1 / open_gop=0 / weightp=0 / keyint=250 / keyint_min=23 / scenecut=40 / intra_refresh=0 / rc_lookahead=80 / rc=2pass / mbtree=1 / bitrate=1855 / ratetol=1.0 / qcomp=0.60 / qpmin=0 / qpmax=69 / qpstep=4 / cplxblur=20.0 / qblur=0.5 / vbv_maxrate=10000 / vbv_bufsize=10000 / nal_hrd=none / filler=0 / ip_ratio=1.40 / aq=1:1.00
Language                                 : Russian
Encoded date                             : UTC 2017-06-11 09:05:52
Tagged date                              : UTC 2017-06-11 09:12:26
Color range                              : Limited
Matrix coefficients                      : BT.709
Menus                                    : 3

Audio
ID                                       : 2
Format                                   : AAC
Format/Info                              : Advanced Audio Codec
Format profile                           : LC
Codec ID                                 : 40
Duration                                 : 2 h 2 min
Source duration                          : 2 h 2 min
Bit rate mode                            : Variable
Nominal bit rate                         : 160 kb/s
Maximum bit rate                         : 165 kb/s
Channel(s)                               : 2 channels
Channel positions                        : Front: L R
Sampling rate                            : 48.0 kHz
Frame rate                               : 46.875 FPS (1024 spf)
Compression mode                         : Lossy
Source stream size                       : 140 MiB (8%)
Language                                 : Russian
Default                                  : Yes
Alternate group                          : 1
Encoded date                             : UTC 2017-06-11 09:05:52
Tagged date                              : UTC 2017-06-11 09:12:26

Menu
ID                                       : 3
Codec ID                                 : text
Duration                                 : 2 h 2 min
Language                                 : English
Encoded date                             : UTC 2017-06-11 09:12:26
Tagged date                              : UTC 2017-06-11 09:12:26
Menu For                                 : 1
00:00:00.000                             : Глава 1
00:07:38.000                             : Глава 2
00:13:07.000                             : Глава 3
00:18:14.000                             : Глава 4
00:24:38.000                             : Глава 5
00:31:26.999                             : Глава 6
00:38:10.000                             : Глава 7
00:44:05.000                             : Глава 8
00:51:29.000                             : Глава 9
00:57:08.000                             : Глава 10
01:02:41.000                             : Глава 11
01:08:01.000                             : Глава 12
01:14:26.000                             : Глава 13
01:22:00.000                             : Глава 14
01:28:24.000                             : Глава 15
01:33:59.000                             : Глава 16
01:39:27.000                             : Глава 17
01:45:27.000                             : Глава 18
01:52:06.000                             : Глава 19
01:56:34.000                             : Глава 20
Bit rate mode                            : VBR

Скриншоты:



Производство: Россия / Студия Горького, Кинокомпания CTB, Роскомкино
Жанр: Боевик, криминал, драма, музыка
Режиссер: Алексей Балабанов
Актеры: Сергей Бодров мл., Виктор Сухоруков, Светлана Письмиченко, Мария Жукова, Юрий Кузнецов, Василиса Стрельникова, Константин Анисимов, Алексей Севостьянов, Андрей Федорцов, Андрей Краско
Описание: Культовая дилогия о «лихих 90-х» Алексея Балабанова с Сергеев Бодровым в главной роли. Герой «Брата», Данила Багров, стал первым настоящим героем постсоветского кинематографа, создавшим практически собственную мифологию и систему ценностей, который всеми способами пытался восстанавливать справедливость.
Продолжительность: 01:35:24 | 02:02:40
Перевод: Не требуется, русский
Субтитры: Отсутствуют

Скриншоты




Время раздачи: 24/7 до первых 10-и скачавших
   
Торрент: Зарегистрирован [12 янв 2018, 17:31] Скачать торрент Магнет ссылка
Скачать торрент
[ Размер 16.68 КБ / Просмотров 1 ]
Статус:
Проверен
 
.torrent скачан: 0 раз
Размер: 3.14 ГБ (3 367 012 481 байт)
   
 
 
Шапка детская "Красная шапочка". Детские шапки для бани. Изделие для защиты волос и кожи головы от воздействия высокой температуры в бане и сауне, декорированная цветными нитями
Цитата
  • Похожие торренты
    Ответы
    Просмотры
    Последнее сообщение

Вернуться в Видео (avi, mp4.)

Кто сейчас на конференции

Сейчас эту тему просматривают: нет зарегистрированных пользователей и гости: 1